Дорога на Эльдорадо / The Road to El Dorado (Бибо Бержерон / Bibo Bergeron, Дон Пол / Don Paul, Джеффри Катценберг / Jeffrey Katzenberg) [2000, США, приключения, WEB-DL 1080p] Dub (1 канал) + 2x MVO + DVO + 2x AVO (Визгунов, Живов) + Rus, Eng Sub

Ответить на тему
Статистика раздачи
Размер:  6,24 GB   |    Зарегистрирован:  5 месяцев 9 дней   |    Скачан:  0 раз

Полного источника не было: 12 дней

 
   
 
 
Автор Сообщение

star21 ®

Пол: Не указан

Стаж: 1 год 9 месяцев

Сообщений: 355778

Создавать темы 11-Мар-2017 01:30

[Цитировать]

Дорога на Эльдорадо / The Road to El Dorado
Страна: США
Жанр: приключения
Продолжительность: 01:29:25
Год выпуска: 2000
Перевод 1: Профессиональный (дублированный) 1 канал
Перевод 2: Профессиональный (многоголосый закадровый)
Перевод 3: Профессиональный (многоголосый закадровый) Премьер Мультимедиа
Перевод 4: Профессиональный (двухголосый закадровый) Премьер Видео Фильм
Перевод 5: Авторский (одноголосый закадровый) Сергей Визгунов
Перевод 6: Авторский (одноголосый закадровый) Юрий Живов
Русские субтитры: есть
Режиссёр: Бибо Бержерон / Bibo Bergeron, Дон Пол / Don Paul, Джеффри Катценберг / Jeffrey Katzenberg
Описание:
Тульо и Мигель, герои этой полнометражной мультипликационной картины, предпочитают не зарабатывать деньги тяжелым трудом. Эти два отпетых мошенника обожают, когда золотишко само идет к ним в руки. Случилось так, что этим проходимцам крупно повезло.
Им посчастливилось найти таинственную карту, на которой обозначен величественный Город Золота, мифический Эльдорадо. Вместе со знаменитым конкистадором Эрнаном Кортесом приятели отправляются в рискованное путешествием за сокровищами к берегам далекой Америки.
Семпл: http://sendfile.su/1294872
Качество: WEB-DL 1080p (Amazon)
Формат: MKV
Видео: 1920x1080 (16:9), 23.976 fps, AVC, ~6461 Kbps, 0.130 bits/pixel
Аудио 1: Russian, 48.0 KHz, AC3, 2 ch, 192 Kbps - 1 канал
Аудио 2: Russian, 48.0 KHz, AC3, 6 ch, 384 Kbps
Аудио 3: Russian, 48.0 KHz, AC3, 6 ch, 448 Kbps - Премьер Мультимедиа
Аудио 4: Russian, 48.0 KHz, AC3, 2 ch, 192 Kbps - Премьер Видео Фильм
Аудио 5: Russian, 48.0 KHz, AC3, 6 ch, 448 Kbps - Сергей Визгунов
Аудио 6: Russian, 48.0 KHz, AC3, 6 ch, 448 Kbps - Юрий Живов
Аудио 7: Ukrainian, 48.0 KHz, AC3, 2 ch, 192 Kbps - Інтер
Аудио 8: Ukrainian, 48.0 KHz, AC3, 1 ch, 192 Kbps - Новий канал
Аудио 9: Russian, 48.0 KHz, AC3, 2 ch, 192 Kbps - Комментарии режиссеров - Бибо Берджерона и Дона Пола
Аудио 10: English, 48.0 KHz, AC3+, 6 ch, 640 Kbps
Субтитры: русские, английские

Доп. информация

Оцифровка перевода Премьер Видео Фильм - Lexa1988-L1, синхронизировал Dreven. Остальные перевода взяты с раздачи xfiles, наложены без пересинхронизации.
- Звуковые дорожки с переводами Сергея Визгунова и Юрия Живова получены путем наложения чистых голосов на центральный канал декодированной оригинальной звуковой дорожки. За чистые голоса переводчиков большое спасибо multmir.
- За исходную звуковую дорожку с дубляжом по заказу "Первого канала" спасибо utas.
- За исходную звуковую дорожку с переводом "Нового канала" спасибо dvorsky /hurtom/.
Все остальные звуковые дорожки и переводы - из моей личной коллекции. Синхронизация всех звуковых дорожек - xfiles.

Сравнение с WEB-DL 720p

720p | 1080p



Подробные технические данные

GeneralUnique ID                   : 228851719583834618054203407425692347182 (0xAC2B3CEAC1B209FE9125D9CD3069AB2E)Complete name               : C:\The Road to El Dorado. WEB-DL 1080p.mkvFormat                      : MatroskaFormat version              : Version 4 / Version 2File size                   : 6.24 GiBDuration                    : 1h 29mnOverall bit rate mode       : VariableOverall bit rate            : 9 988 KbpsMovie name                  : The Road to El Dorado (2000)Encoded date                : UTC 2016-12-30 04:53:55Writing application         : mkvmerge v9.6.0 ('Slave To Your Mind') 64bitWriting library             : libebml v1.3.4 + libmatroska v1.4.5
VideoID : 1Format : AVCFormat/Info : Advanced Video CodecFormat profile : High@L4Format settings, CABAC : YesFormat settings, ReFrames : 4 framesCodec ID : V_MPEG4/ISO/AVCDuration : 1h 29mnBit rate mode : VariableBit rate : 6 656 KbpsMaximum bit rate : 15.0 MbpsWidth : 1 920 pixelsHeight : 1 080 pixelsDisplay aspect ratio : 16:9Frame rate mode : ConstantFrame rate : 23.976 (24000/1001) fpsColor space : YUVChroma subsampling : 4:2:0Bit depth : 8 bitsScan type : ProgressiveBits/(Pixel*Frame) : 0.134Stream size : 4.16 GiB (67%)Writing library : x264 core 148 r2623 d5b2374Encoding settings : cabac=1 / ref=4 / deblock=1:-1:-1 / analyse=0x3:0x133 / me=umh / subme=9 / psy=1 / psy_rd=1.00:0.15 / mixed_ref=1 / me_range=24 / chroma_me=1 / trellis=2 / 8x8dct=1 / cqm=0 / deadzone=21,11 / fast_pskip=1 / chroma_qp_offset=-3 / threads=34 / lookahead_threads=5 / sliced_threads=0 / nr=150 / decimate=1 / interlaced=0 / bluray_compat=0 / constrained_intra=0 / bframes=8 / b_pyramid=2 / b_adapt=2 / b_bias=0 / direct=3 / weightb=1 / open_gop=0 / weightp=2 / keyint=120 / keyint_min=61 / scenecut=0 / intra_refresh=0 / rc_lookahead=120 / rc=crf / mbtree=1 / crf=18.0 / qcomp=0.60 / qpmin=0 / qpmax=69 / qpstep=4 / vbv_maxrate=15000 / vbv_bufsize=31250 / crf_max=0.0 / nal_hrd=vbr / filler=0 / ip_ratio=1.40 / aq=3:1.00Language : EnglishDefault : YesForced : NoColor range : LimitedColor primaries : BT.709Transfer characteristics : BT.709Matrix coefficients : BT.709
Audio #1ID : 2Format : AC-3Format/Info : Audio Coding 3Mode extension : CM (complete main)Format settings, Endianness : BigCodec ID : A_AC3Duration : 1h 29mnBit rate mode : ConstantBit rate : 192 KbpsChannel(s) : 2 channelsChannel positions : Front: L RSampling rate : 48.0 KHzFrame rate : 31.250 fps (1536 spf)Compression mode : LossyStream size : 123 MiB (2%)Title : 1 каналLanguage : RussianDefault : YesForced : No
Audio #2ID : 3Format : AC-3Format/Info : Audio Coding 3Mode extension : CM (complete main)Format settings, Endianness : BigCodec ID : A_AC3Duration : 1h 29mnBit rate mode : ConstantBit rate : 384 KbpsChannel(s) : 6 channelsChannel positions : Front: L C R, Side: L R, LFESampling rate : 48.0 KHzFrame rate : 31.250 fps (1536 spf)Compression mode : LossyStream size : 246 MiB (4%)Language : RussianDefault : NoForced : No
Audio #3ID : 4Format : AC-3Format/Info : Audio Coding 3Mode extension : CM (complete main)Format settings, Endianness : BigCodec ID : A_AC3Duration : 1h 29mnBit rate mode : ConstantBit rate : 448 KbpsChannel(s) : 6 channelsChannel positions : Front: L C R, Side: L R, LFESampling rate : 48.0 KHzFrame rate : 31.250 fps (1536 spf)Compression mode : LossyStream size : 287 MiB (4%)Title : Премьер МультимедиаLanguage : RussianDefault : NoForced : No
Audio #4ID : 5Format : AC-3Format/Info : Audio Coding 3Mode extension : CM (complete main)Format settings, Endianness : BigCodec ID : A_AC3Duration : 1h 29mnBit rate mode : ConstantBit rate : 192 KbpsChannel(s) : 2 channelsChannel positions : Front: L RSampling rate : 48.0 KHzFrame rate : 31.250 fps (1536 spf)Compression mode : LossyStream size : 123 MiB (2%)Title : Премьер Видео ФильмLanguage : RussianDefault : NoForced : No
Audio #5ID : 6Format : AC-3Format/Info : Audio Coding 3Mode extension : CM (complete main)Format settings, Endianness : BigCodec ID : A_AC3Duration : 1h 29mnBit rate mode : ConstantBit rate : 448 KbpsChannel(s) : 6 channelsChannel positions : Front: L C R, Side: L R, LFESampling rate : 48.0 KHzFrame rate : 31.250 fps (1536 spf)Compression mode : LossyStream size : 287 MiB (4%)Title : Сергей ВизгуновLanguage : RussianDefault : NoForced : No
Audio #6ID : 7Format : AC-3Format/Info : Audio Coding 3Mode extension : CM (complete main)Format settings, Endianness : BigCodec ID : A_AC3Duration : 1h 29mnBit rate mode : ConstantBit rate : 448 KbpsChannel(s) : 6 channelsChannel positions : Front: L C R, Side: L R, LFESampling rate : 48.0 KHzFrame rate : 31.250 fps (1536 spf)Compression mode : LossyStream size : 287 MiB (4%)Title : Юрий ЖивовLanguage : RussianDefault : NoForced : No
Audio #7ID : 8Format : AC-3Format/Info : Audio Coding 3Mode extension : CM (complete main)Format settings, Endianness : BigCodec ID : A_AC3Duration : 1h 29mnBit rate mode : ConstantBit rate : 192 KbpsChannel(s) : 2 channelsChannel positions : Front: L RSampling rate : 48.0 KHzFrame rate : 31.250 fps (1536 spf)Compression mode : LossyStream size : 123 MiB (2%)Title : ІнтерLanguage : UkrainianDefault : NoForced : No
Audio #8ID : 9Format : AC-3Format/Info : Audio Coding 3Mode extension : CM (complete main)Format settings, Endianness : BigCodec ID : A_AC3Duration : 1h 29mnBit rate mode : ConstantBit rate : 192 KbpsChannel(s) : 1 channelChannel positions : Front: CSampling rate : 48.0 KHzFrame rate : 31.250 fps (1536 spf)Compression mode : LossyStream size : 123 MiB (2%)Title : Новий каналLanguage : UkrainianDefault : NoForced : No
Audio #9ID : 10Format : AC-3Format/Info : Audio Coding 3Mode extension : CM (complete main)Format settings, Endianness : BigCodec ID : A_AC3Duration : 1h 29mnBit rate mode : ConstantBit rate : 192 KbpsChannel(s) : 2 channelsChannel positions : Front: L RSampling rate : 48.0 KHzFrame rate : 31.250 fps (1536 spf)Compression mode : LossyStream size : 123 MiB (2%)Title : Комментарии режиссеров - Бибо Берджерона и Дона ПолаLanguage : RussianDefault : NoForced : No
Audio #10ID : 11Format : E-AC-3Format/Info : Audio Coding 3Format settings, Endianness : BigCodec ID : A_EAC3Duration : 1h 29mnBit rate mode : ConstantBit rate : 640 KbpsChannel(s) : 6 channelsChannel positions : Front: L C R, Side: L R, LFESampling rate : 48.0 KHzFrame rate : 187.500 fps (256 spf)Compression mode : LossyStream size : 409 MiB (6%)Language : EnglishDefault : NoForced : No
Text #1ID : 12Format : UTF-8Codec ID : S_TEXT/UTF8Codec ID/Info : UTF-8 Plain TextDuration : 1h 22mnBit rate : 75 bpsCount of elements : 913Stream size : 45.6 KiB (0%)Title : Премьер МультимедиаLanguage : RussianDefault : NoForced : No
Text #2ID : 13Format : UTF-8Codec ID : S_TEXT/UTF8Codec ID/Info : UTF-8 Plain TextDuration : 1h 29mnBit rate : 65 bpsCount of elements : 1358Stream size : 42.8 KiB (0%)Language : EnglishDefault : NoForced : No
Menu00:00:00.000 : en:El Dorado (main titles)00:04:03.000 : en:Loaded Dice00:07:23.000 : en:Stowaways00:10:38.000 : en:Overboard00:14:02.000 : en:Beached00:17:19.000 : en:The Trail We Blaze00:20:28.000 : en:Great Big Rock00:23:58.000 : en:Entering El Dorado00:25:05.000 : en:Stopping the Volcano00:30:15.000 : en:Cheldorado00:34:46.000 : en:It's Tough to Be a God00:37:23.000 : en:A Proper Tribute00:42:27.000 : en:Three Days00:46:31.000 : en:Age of the Jaguar00:48:18.000 : en:Without Question00:50:35.000 : en:Tzekel-kan's Advice00:52:52.000 : en:Play Ball00:57:48.000 : en:No Sacrifices00:59:22.000 : en:Gods Don't Bleed01:02:40.000 : en:Tulio and Chel - Deal01:05:18.000 : en:Jaguar Attacks01:10:02.000 : en:Tzekel-kan Emerges01:11:34.000 : en:Friends Never Say Goodbye01:14:43.000 : en:Cortes Approaches01:16:59.000 : en:Got a Wave to Catch01:19:46.000 : en:There's No El Dorado Here01:21:12.000 : en:Follow That Trail01:22:44.000 : en:Someday Out of the Blue (end credits)

Скриншоты

Для скачки контента: [Установить программу-клиент] и кликнуть по - Скачать

[asmlocator.ru].t315238.torrent 
Торрент: Зарегистрирован [ 2017-03-11 01:30 ] · 59CEEACCA7240096A32DEC3219937391ED0691B5

Скачать .torrent

Скачать

16 KB

Статус: проверено
Скачан: 0 раз
Размер: 6,24 GB
terms.php
[Профиль] [ЛС]
Показать сообщения:    
Ответить на тему

Текущее время: 20-Авг 09:42

Часовой пояс: UTC ± 0



Вы не можете начинать темы
Вы не можете отвечать на сообщения
Вы не можете редактировать свои сообщения
Вы не можете удалять свои сообщения
Вы не можете голосовать в опросах
Вы не можете прикреплять файлы к сообщениям
Вы можете скачивать файлы