Друзья-холостяки / Три холостяка / 3 Bachelors (Аджай Синха / Ajai Sinha) [2012, Индия, Мелодрама, комедия, HDRip] MVO (SDI Media)

Ответить на тему
Статистика раздачи
Размер:  751 MB   |    Зарегистрирован:  8 месяцев 14 дней   |    Скачан:  0 раз

Полного источника не было: Никогда

Личеров:  1  [  0 KB/s  ]   Подробная статистика пиров
 
   
 
 
Автор Сообщение

star21 ®

Пол: Не указан

Стаж: 2 года

Сообщений: 355767

Создавать темы 06-Мар-2017 07:06

[Цитировать]

Друзья-холостяки / Три холостяка / 3 Bachelors -Страна: Индия
Жанр: Комедия
Год выпуска: 2012
Продолжительность: 01:54:12-Перевод: Профессиональный (многоголосый закадровый) - SDI Media (т/к Индия ТВ)
Cубтитры: нет-Режиссер: Аджай Синха / Ajai Sinha-В ролях: Шарман Джоши, Нигар Кхан, Ниджар Кхан, Маниш Наджпал, Манодж Пахва, Райма Сен, Рия Сен, Химани Шивпури-Описание: Аджай и Амит приезжают в Мумбаи, чтобы поступить в колледж Дхаривал. Уже в первый день пребывания в колледже они попадают в неприятное положение, приставая к Нехе и Нише. Кроме того, им как иногородним не дают общежитие, и они с помощью посреднической фирмы вынуждены снимать жильё. Хозяйка квартиры заявляет им, что она пускает только семейные пары. Тогда Амит и Джай объявляют себя мужем и женой. Затем оказывается, что хозяйка квартиры Шалини - ректор их колледжа, а Неха и Ниша - её племянницы. Как и следовало ожидать, Амит влюбляется в Неху, Джай - в Нишу, а Шалини - в профессора колледжа.--[imdb]http://www.imdb.com/title/tt2224254[/imdb] --Качество видео: HDRip
Формат видео: AVI
Видео: 656x272 (2.41:1), 24.000 fps, XviD build 50 ~781 kbps
Аудио: 44.100 kHz, MPEG Layer 3, 2 ch, ~128.00 kbps-Сэмпл / Sample- -- -

Скриншот с названием


-

Скриншоты


-

MI

General
Complete name : H:\[Релизы]\Druzya.Holostyaki.2012.P.HDRip.BwTorrents-soso4eg.750mb.avi
Format : AVI
Format/Info : Audio Video Interleave
File size : 751 MiB
Duration : 1h 54mn
Overall bit rate : 919 Kbps
Writing application : VirtualDubMod 1.5.10.2 (build 2540/release)
Video
ID : 0
Format : MPEG-4 Visual
Format profile : Advanced Simple@L5
Format settings, BVOP : 1
Format settings, QPel : No
Format settings, GMC : No warppoints
Format settings, Matrix : Default (H.263)
Codec ID : XVID
Codec ID/Hint : XviD
Duration : 1h 54mn
Bit rate : 782 Kbps
Width : 656 pixels
Height : 272 pixels
Display aspect ratio : 2.40:1
Frame rate : 24.000 fps
Color space : YUV
Chroma subsampling : 4:2:0
Bit depth : 8 bits
Scan type : Progressive
Compression mode : Lossy
Bits/(Pixel*Frame) : 0.183
Stream size : 639 MiB (85%)
Writing library : XviD 1.2.1 (UTC 2008-12-04)
Audio
ID : 1
Format : MPEG Audio
Format version : Version 1
Format profile : Layer 3
Mode : Joint stereo
Mode extension : MS Stereo
Codec ID : 55
Codec ID/Hint : MP3
Duration : 1h 54mn
Bit rate mode : Constant
Bit rate : 128 Kbps
Channel count : 2 channels
Sampling rate : 44.1 KHz
Compression mode : Lossy
Stream size : 105 MiB (14%)
Alignment : Split accross interleaves
Interleave, duration : 42 ms (1.00 video frame)
Interleave, preload duration : 500 ms

Для скачки контента: [Установить программу-клиент] и кликнуть по - Скачать

[asmlocator.ru].t309841.torrent 
Торрент: Зарегистрирован [ 2017-03-06 07:06 ] · 37E638AE71DEE581BFA525B7E182D9AC4C2AFA15

Скачать .torrent

Скачать

15 KB

Статус: проверено
Скачан: 0 раз
Размер: 751 MB
terms.php
[Профиль] [ЛС]

igd48

Пол: Мужской

Стаж: 13 дней

Сообщений: 1

Откуда: Москва

Создавать темы 07-Ноя-2017 07:38 (спустя 8 месяцев 1 день)

[Цитировать]

star21, Большая просьба встать на раздачу фильма друзья-холостяки. Заранее СПАСИБО!!!
[Профиль] [ЛС]
Показать сообщения:    
Ответить на тему

Текущее время: 20-Ноя 15:28

Часовой пояс: UTC ± 0



Вы не можете начинать темы
Вы не можете отвечать на сообщения
Вы не можете редактировать свои сообщения
Вы не можете удалять свои сообщения
Вы не можете голосовать в опросах
Вы не можете прикреплять файлы к сообщениям
Вы можете скачивать файлы