Принцесса / Princesse (Мари-Софи Шамбон / Marie-Sophie Chambon) [2014, Франция, комедия, короткий метр, DVB] Original (Fre) + Sub (Rus, Eng, Fre, Deu)

Ответить на тему
Статистика раздачи
Размер:  219 MB   |    Зарегистрирован:  2 месяца 23 дня   |    Скачан:  0 раз

Полного источника не было: Никогда

 
   
 
 
Автор Сообщение

star21 ®

Пол: Не указан

Стаж: 1 год 4 месяца

Сообщений: 300211

Создавать темы 05-Янв-2017 15:25

[Цитировать]

Принцесса
Princesse- Страна: Франция
Жанр: комедия, короткий метр
Год выпуска: 2014
Продолжительность: 00:10:10
Перевод: Субтитры (перевод И.Солнцевой, éclair Media)
Cубтитры: русские, английские, французские, немецкие, нидерландские
Оригинальная аудиодорожка: французский
Режиссер: Мари-Софи Шамбон / Marie-Sophie ChambonВ ролях: Дафне Руссо / Daphné Rousseau (Loïs), Людовик Бертийо / Ludovic Berthillot (Le père)
Описание: 7-летняя Лоиз увидела в витрине магазина чудесное платье Золушки...
Доп. информация: Hot Bird (13.0°E) TV5MONDE Europe DVB-S
Награды: Специальное упоминание жюри в конкурсе "Короткометражных игровых фильмов" Фестиваля "КОТ" (Кино, образование, творчество) 2015 "За уважение к праву выбора ребенка"; приз жюри за лучшую короткометражку Festival de Saint-Jean de Luz 2015; 2-й приз SIRAR - Festival International du film d’Aubagne 2015; 2 награды Festival Européen du Court Métrage de Bordeaux 2015 (премия профессионального жюри, приз зрительских симпатий). Участник Short Film Cornet - Cannes Film Festival 2015.
[imdb]http://www.imdb.com/title/tt4114706[/imdb]
Качество видео: DVB
Формат видео: MKV
Видео: MPEG Video 2, 720x576@1024x576 (16:9), 25 fps, ~2758 kbps avg, 0.266 bit/pixel
Аудио: MPEG Audio 2, 2 ch, 48 kHz, 192 kbps - французский
Формат субтитров: softsub (SRT)

Пример субтитров

100:00:40,606 --> 00:00:43,606ПРИНЦЕССА
200:00:48,197 --> 00:00:51,197Мне надо за сигаретами,Принцесса.
300:00:51,759 --> 00:00:54,759Давай.
400:00:54,886 --> 00:00:57,078Давай, пошли.
500:00:57,078 --> 00:00:58,196Ну, давай!
600:00:58,196 --> 00:01:01,196Пошли.
700:01:11,884 --> 00:01:14,884Черт знает, что такое!
800:01:29,684 --> 00:01:32,638Тебе лучше не есть конфеты,от них толстеют.
900:01:32,638 --> 00:01:35,638Чтобы быть красивой,надо есть фрукты.
1000:01:53,881 --> 00:01:56,881Ну что,пошли купим то платье?
1100:01:56,963 --> 00:01:59,963Пошли.
1200:02:03,961 --> 00:02:06,961Здравствуйте.
1300:02:10,240 --> 00:02:13,240Какой красивый розовый цвет!Тебе так идет.
1400:02:13,798 --> 00:02:16,798А какие у тебя блестки!
1500:02:16,916 --> 00:02:19,478Поис?
1600:02:19,478 --> 00:02:22,478Нет. Я хочу быть принцессой.
1700:03:10,229 --> 00:03:11,802-Помоги.-Мне больно!
1800:03:11,802 --> 00:03:13,269Подними руки.
1900:03:13,269 --> 00:03:14,592Еще немножко.
2000:03:14,592 --> 00:03:16,873Еще, еще, еще.

MediaInfo

GeneralUnique ID                                : 219047718047226378535228843822208886288 (0xA4CB0E5253479C63BC91F1583009A610)Complete name                            : [apreder]MM_Princesse(2014)DVB.mkvFormat                                   : MatroskaFormat version                           : Version 2File size                                : 219 MiBDuration                                 : 10 min 10 sOverall bit rate                         : 3 010 kb/sMovie name                               : PrincesseReleased date                            : 2014-07-00Encoded date                             : UTC 2016-12-25 16:16:54Writing application                      : mkvmerge v9.6.0 ('Slave To Your Mind') 64bitWriting library                          : libebml v1.3.4 + libmatroska v1.4.5Cover                                    : YesAttachments                              : cover.png / small_cover.pngACTOR                                    : Ludovic Berthillot, Daphnй RousseauDIRECTOR                                 : Marie-Sophie ChambonGENRE                                    : Short, ComedyIMDB                                     : tt4114706KEYWORDS                                 : rutracker.orgLAW_RATING                               : 6+
VideoID : 1Format : MPEG VideoFormat version : Version 2Format profile : Main@MainFormat settings, BVOP : YesFormat settings, Matrix : CustomFormat settings, GOP : M=4, N=12Format settings, picture structure : FrameCodec ID : V_MPEG2Codec ID/Info : MPEG 1 or 2 VideoDuration : 10 min 10 sBit rate mode : ConstantBit rate : 2 758 kb/sMaximum bit rate : 3 200 kb/sWidth : 720 pixelsHeight : 576 pixelsDisplay aspect ratio : 16:9Frame rate mode : ConstantFrame rate : 25.000 FPSStandard : PALColor space : YUVChroma subsampling : 4:2:0Bit depth : 8 bitsScan type : InterlacedScan order : Top Field FirstCompression mode : LossyBits/(Pixel*Frame) : 0.266Stream size : 201 MiB (92%)Default : YesForced : No
AudioID : 2Format : MPEG AudioFormat version : Version 1Format profile : Layer 2Mode : Joint stereoMode extension : Intensity Stereo + MS StereoCodec ID : A_MPEG/L2Codec ID/Hint : MP2Duration : 10 min 10 sBit rate mode : ConstantBit rate : 192 kb/sChannel(s) : 2 channelsSampling rate : 48.0 kHzCompression mode : LossyStream size : 14.0 MiB (6%)Language : FrenchDefault : YesForced : No
Text #1ID : 3Format : UTF-8Codec ID : S_TEXT/UTF8Codec ID/Info : UTF-8 Plain TextLanguage : RussianDefault : NoForced : No
Text #2ID : 4Format : UTF-8Codec ID : S_TEXT/UTF8Codec ID/Info : UTF-8 Plain TextLanguage : EnglishDefault : NoForced : No
Text #3ID : 5Format : UTF-8Codec ID : S_TEXT/UTF8Codec ID/Info : UTF-8 Plain TextLanguage : FrenchDefault : NoForced : No
Text #4ID : 6Format : UTF-8Codec ID : S_TEXT/UTF8Codec ID/Info : UTF-8 Plain TextLanguage : GermanDefault : NoForced : No
Text #5ID : 7Format : UTF-8Codec ID : S_TEXT/UTF8Codec ID/Info : UTF-8 Plain TextLanguage : DutchDefault : NoForced : No

Скриншот c названием фильма

Скриншоты

Резервные скриншоты

- [3'413]

Если ваш рейтинг упадет ниже 0,3, вы не сможете скачивать торренты! Подробнее о рейтинге.

[asmlocator.ru].t300955.torrent 
Торрент: Зарегистрирован [ 2017-01-05 15:25 ] · 6420E8630EF296375DF3851936CE8D0D33CC0741

Скачать .torrent

Скачать

3 KB

Статус: проверено
Скачан: 0 раз
Размер: 219 MB
terms.php
[Профиль] [ЛС]
Показать сообщения:    
Ответить на тему

Текущее время: 28-Мар 17:42

Часовой пояс: UTC ± 0



Вы не можете начинать темы
Вы не можете отвечать на сообщения
Вы не можете редактировать свои сообщения
Вы не можете удалять свои сообщения
Вы не можете голосовать в опросах
Вы не можете прикреплять файлы к сообщениям
Вы можете скачивать файлы