Встреча выпускников / Atertraffen / The Reunion (Анна Уделл / Anna Odell) [2013, Швеция, драма, DVDRip-AVC] Sub Rus (Александра Гусева) , Eng, Swe + Original Swe

Ответить на тему
Статистика раздачи
Размер:  1,47 GB   |    Зарегистрирован:  5 месяцев 21 день   |    Скачан:  0 раз

Полного источника не было: 3 месяца 11 дней

 
   
 
 
Автор Сообщение

star21 ®

Пол: Не указан

Стаж: 1 год 7 месяцев

Сообщений: 299353

Создавать темы 05-Янв-2017 12:05

[Цитировать]

Встреча выпускников / Återträffen / The Reunion
Страна: Швеция
Жанр: драма
Год выпуска: 2013
Продолжительность: 01:20:31
Перевод: Субтитры Александра Гусева
Cубтитры: русские, английские, шведские
Оригинальная аудиодорожка: шведский
Режиссер: Анна Уделл / Anna Odell
В ролях: Анна Уделл, Андерс Берг, Давид Норденстрём, Эрик Эн, Фредрик Мейер, Камилла Бенхамса, Лена Моссегорд, Малин Вулкано, Микаэла Рамель, Минна Тройтигер, Никлас Энгдаль, Рикард Свенссон, Хенрик Норлен
Описание: Шведская художница и режиссер фильма Анна Уделл заслужила скандальную репутацию в Скандинавии в одночасье, когда в 2009 году ее отправили на принудительное психиатрическое лечение за попытку спрыгнуть с моста — пока не выяснилось, что то был ее дипломный арт-проект.
Ее дебютный фильм «Встреча выпускников» состоит из двух частей и строится на том же подлоге: начинаясь со всей очевидностью игрового фильма, он показывает встречу выпускников, на которой Анна играет саму себя, приходит без приглашения и, ко всеобщему неудовольствию, берет слово (тем самым вызывая непроизвольные ассоциации с «Торжеством» Винтерберга).
Обладатель шведского «Оскара» за лучший фильм 2014 года.
Доп. информация: Релиз - Скандинавский калейдоскоп.
[imdb]http://www.imdb.com/title/tt2402091[/imdb]
Сэмпл: https://yadi.sk/i/hrn1d0WFwTZcv
Качество видео: DVDRip-AVC
Формат видео: MKV
Видео: V_MPEG4/ISO/AVC, 720x574 (1024x574) 16:9, 25.000 fps, 1 998 Kbps
Аудио: AC-3, 48.0 KHz, 448 Kbps, 6 channels
Формат субтитров: softsub (SRT)

MediaInfo

General
Unique ID : 248416140932593400331955512350597852893 (0xBAE3355CEBE9DC46BA721CEA752E2EDD)
Complete name : E:\Torrent\Встреча выпускников (The Reunion) (2013).mkv
Format : Matroska
Format version : Version 4 / Version 2
File size : 1.47 GiB
Duration : 1h 25mn
Overall bit rate : 2 449 Kbps
Encoded date : UTC 2016-03-11 15:31:41
Writing application : mkvmerge v8.0.0 ('Til The Day That I Die') 64bit
Writing library : libebml v1.3.1 + libmatroska v1.4.2
DURATION : 01:20:31.791000000
NUMBER_OF_FRAMES : 827
NUMBER_OF_BYTES : 65541
_STATISTICS_WRITING_APP : mkvmerge v8.0.0 ('Til The Day That I Die') 64bit
_STATISTICS_WRITING_DATE_UTC : 2016-03-11 15:31:41
_STATISTICS_TAGS : BPS DURATION NUMBER_OF_FRAMES NUMBER_OF_BYTES
Video
ID : 1
Format : AVC
Format/Info : Advanced Video Codec
Format profile : High@L3.1
Format settings, CABAC : Yes
Format settings, ReFrames : 9 frames
Codec ID : V_MPEG4/ISO/AVC
Duration : 1h 25mn
Bit rate : 1 998 Kbps
Width : 720 pixels
Height : 574 pixels
Display aspect ratio : 16:9
Frame rate mode : Constant
Frame rate : 25.000 fps
Color space : YUV
Chroma subsampling : 4:2:0
Bit depth : 8 bits
Scan type : Progressive
Bits/(Pixel*Frame) : 0.193
Stream size : 1.17 GiB (80%)
Writing library : x264 core 142 r2479 dd79a61
Encoding settings : cabac=1 / ref=9 / deblock=1:-3:-3 / analyse=0x3:0x133 / me=umh / subme=9 / psy=1 / psy_rd=1.00:0.00 / mixed_ref=1 / me_range=24 / chroma_me=1 / trellis=2 / 8x8dct=1 / cqm=0 / deadzone=21,11 / fast_pskip=0 / chroma_qp_offset=-2 / threads=6 / lookahead_threads=1 / sliced_threads=0 / nr=0 / decimate=1 / interlaced=0 / bluray_compat=0 / constrained_intra=0 / bframes=6 / b_pyramid=2 / b_adapt=2 / b_bias=0 / direct=3 / weightb=1 / open_gop=0 / weightp=2 / keyint=250 / keyint_min=25 / scenecut=40 / intra_refresh=0 / rc_lookahead=60 / rc=abr / mbtree=1 / bitrate=1998 / ratetol=1.0 / qcomp=0.60 / qpmin=0 / qpmax=69 / qpstep=4 / ip_ratio=1.40 / aq=2:1.00
Default : Yes
Forced : No
Color primaries : BT.601 PAL
Transfer characteristics : BT.709
Matrix coefficients : BT.601
DURATION : 01:25:48.560000000
NUMBER_OF_FRAMES : 128714
NUMBER_OF_BYTES : 1286486861
_STATISTICS_WRITING_APP : mkvmerge v8.0.0 ('Til The Day That I Die') 64bit
_STATISTICS_WRITING_DATE_UTC : 2016-03-11 15:31:41
_STATISTICS_TAGS : BPS DURATION NUMBER_OF_FRAMES NUMBER_OF_BYTES
Audio
ID : 2
Format : AC-3
Format/Info : Audio Coding 3
Mode extension : CM (complete main)
Format settings, Endianness : Big
Codec ID : A_AC3
Duration : 1h 25mn
Bit rate mode : Constant
Bit rate : 448 Kbps
Channel(s) : 6 channels
Channel positions : Front: L C R, Side: L R, LFE
Sampling rate : 48.0 KHz
Bit depth : 16 bits
Compression mode : Lossy
Stream size : 275 MiB (18%)
Title : Surround
Language : Swedish
Default : Yes
Forced : No
DURATION : 01:25:48.544000000
NUMBER_OF_FRAMES : 160892
NUMBER_OF_BYTES : 288318464
_STATISTICS_WRITING_APP : mkvmerge v8.0.0 ('Til The Day That I Die') 64bit
_STATISTICS_WRITING_DATE_UTC : 2016-03-11 15:31:41
_STATISTICS_TAGS : BPS DURATION NUMBER_OF_FRAMES NUMBER_OF_BYTES
Text #1
ID : 3
Format : UTF-8
Codec ID : S_TEXT/UTF8
Codec ID/Info : UTF-8 Plain Text
Language : Russian
Default : Yes
Forced : No
Text #2
ID : 4
Format : UTF-8
Codec ID : S_TEXT/UTF8
Codec ID/Info : UTF-8 Plain Text
Language : English
Default : No
Forced : No
Text #3
ID : 5
Format : UTF-8
Codec ID : S_TEXT/UTF8
Codec ID/Info : UTF-8 Plain Text
Language : Swedish
Default : No
Forced : No
Menu
00:00:00.000 : :Chapter 1
00:04:39.920 : :Chapter 2
00:10:14.480 : :Chapter 3
00:28:13.520 : :Chapter 4
00:30:50.960 : :Chapter 5
00:37:57.680 : :Chapter 6
00:41:24.560 : :Chapter 7
00:43:09.680 : :Chapter 8
00:53:53.360 : :Chapter 9
01:07:31.280 : :Chapter 10
01:16:50.960 : :Chapter 11
01:23:37.040 : :Chapter 12

Скриншот c названием фильма

Скриншоты

1024x574

Пример субтитров

1
00:00:01,280 --> 00:00:07,851
«ВСТРЕЧА ВЫПУСКНИКОВ»,
реж. Анна Уделл
2
00:00:08,280 --> 00:00:10,851
Перевод: Александра Гусева
3
00:00:11,106 --> 00:00:14,182
СКАНДИНАВСКИЙ КАЛЕЙДОСКОП
4
00:01:02,520 --> 00:01:06,559
У нас есть еще штопоры?
— Я найду.
5
00:01:06,760 --> 00:01:09,354
Свечи на улице зажгли?
6
00:01:14,280 --> 00:01:15,634
Малле?
7
00:01:15,840 --> 00:01:17,319
Привет!
8
00:01:19,040 --> 00:01:22,556
Вау! Как я рада тебя видеть!
— Так волнительно!
9
00:01:22,760 --> 00:01:24,956
Думаешь, все придут?
— Надеюсь.
10
00:01:25,160 --> 00:01:27,800
Было бы так круто!
— Привет!
11
00:01:28,000 --> 00:01:29,399
Привет!
12
00:01:31,240 --> 00:01:35,154
Напитки в баре, так что угощайтесь.
13
00:01:38,880 --> 00:01:43,113
Отлично выглядишь!
— Ты тоже. Серьезно!
14
00:01:43,320 --> 00:01:47,678
Видела, кто здесь?
— Лена! Пойду поздороваюсь!
15
00:01:52,880 --> 00:01:55,394
Привет. Сто лет не виделись.
16
00:01:55,600 --> 00:01:58,160
Андерс! — Никлас!
17
00:02:00,120 --> 00:02:02,430
Как дела? — Да отлично!
18
00:02:02,640 --> 00:02:05,792
Рад тебя видеть!
— Ты помнишь Фредрика С.?
19
00:02:06,000 --> 00:02:10,836
Отлично выглядишь!
— И ты только что родила ребенка!
20
00:02:11,040 --> 00:02:13,236
Смотрите, кто здесь!
21
00:02:21,680 --> 00:02:26,914
Можно? Когда срок – сегодня?
— Через три недели.
22
00:02:29,960 --> 00:02:38,630
Пора начинать вечеринку!
Подходите ближе, мы начинаем!
23
00:02:38,840 --> 00:02:42,993
Здорово видеть здесь столько лиц.
24
00:02:43,200 --> 00:02:46,192
Ура!

Если ваш рейтинг упадет ниже 0,3, вы не сможете скачивать торренты! Подробнее о рейтинге.

[asmlocator.ru].t300727.torrent 
Торрент: Зарегистрирован [ 2017-01-05 12:05 ] · 1F33934970577CB465DC9D04D237E2341CC7B486

Скачать .torrent

Скачать

15 KB

Статус: проверено
Скачан: 0 раз
Размер: 1,47 GB
terms.php
[Профиль] [ЛС]
Показать сообщения:    
Ответить на тему

Текущее время: 26-Июн 15:33

Часовой пояс: UTC ± 0



Вы не можете начинать темы
Вы не можете отвечать на сообщения
Вы не можете редактировать свои сообщения
Вы не можете удалять свои сообщения
Вы не можете голосовать в опросах
Вы не можете прикреплять файлы к сообщениям
Вы можете скачивать файлы