С днем рождения! (Лариса Садилова) [1998, социальная драма, DVDRip]

Reply to topic
DL-List and Torrent activity
Size:  1.08 GB   |    Registered:  2 years 7 months   |    Completed:  0 times

Seeder not seen: Never

 
   
 
 
Author Message

star21 ®

Gender: Female

Longevity: 3 years 9 months

Posts: 551989

Location: Екатеринбург

Post 04-Jan-2017 23:35

[Quote]

С днём рождения!-Год выпуска: 1998
Страна: Россия
Жанр: Социальная драма
Продолжительность: 01:07:42
Субтитры: Есть (английские, вшитые в видео)
Режиссер: Лариса Садилова
Продюсер: Геннадий Сидоров
В ролях: Гульнара Мхитарян, Ирина Прошина, Евгения Туркина, Маша Кузьмина, Рано Кубаева, Любовь Старкова, Оксана Потоцкая, Раиса Сазонова, Людмила Кузнецова, Олег Ухов, Анна Коновалова, Олег Васильков, Мурад Ибрагимбеков, Наталья Пьянкова, Геннадий Сидоров-О фильмеДебютная режиссерская работа выпускницы московского ВГИКа Ларисы Садиловой "С днём рождения!" впервые была показана во Франции на фестивале женского кино в Кретее, где картина удостоилась Гран при жюри фестиваля.
Фильм рассказывает историю пяти будущих мам в стареньком и ветхом роддоме города Кашира в российской глубинке. Пять разных женщин с разными жизненными судьбами находятся в обстановке, как говорится, "максимально приближенной к боевой" (ощущение документальности создается черно-белым решением картины, реалистичными кадрами родов), в этой старой больнице, где всего не хватает, доживающей последние дни до закрытия. Но несмотря на все невзгоды, нищету обстановки, перманентную нехватку денег (нянечки сдают передачи - конфеты - в ближайший магазин, ибо роженицам нужны не сладости), героини Садиловой - отнюдь не сдают позиций - "на войне, как на войне", они смеются, шутят... Как писали русские критики, "старый, обшарпанный роддом странно и неожиданно становится оазисом покоя". -Техническая информация
Качество: DVDRip
Источник: DVD5 (большое спасибо SIDOROV GENNADY за этот релиз)
Формат: AVI (совместимый с бытовыми DVD-плеерами)
Видео кодек: XviD
Аудио кодек: AC3
Видео: 688х528 (1.03:1), 25,000 fps, XviD 1.2.1 ~ 2023 kbps avg, 0.22 bit/pixel
Аудио: 48 kHz, AC3 Dolby Digital, 2 channels (Front: L, R), ~256.00 kbps avg
Размер: 1108 Mb
Для создания этого DVDRip'а использовалась программа XviD4PSP (спасибо её авторам + отдельное спасибо mihanja80 и AkvenJan за помощь и советы в её использовании) и PgcDemux.

Скринлист фильма

Информация из MediaInfo

General
Complete name : E:\S.dnem.rojdeniya.1998.DVDRip.XviD.AC3.avi
Format : AVI
Format/Info : Audio Video Interleave
File size : 1.08 GiB
Duration : 1h 7mn
Overall bit rate : 2 289 Kbps
Writing application : VirtualDubMod 1.5.10.2 (build 2540/release)
Writing library : VirtualDubMod build 2540/release
Video
ID : 0
Format : MPEG-4 Visual
Format profile : Advanced Simple@L5
Format settings, BVOP : Yes
Format settings, QPel : No
Format settings, GMC : No warppoints
Format settings, Matrix : Default (MPEG)
Codec ID : XVID
Codec ID/Hint : XviD
Duration : 1h 7mn
Bit rate : 2 023 Kbps
Width : 688 pixels
Height : 528 pixels
Display aspect ratio : 4:3
Frame rate : 25.000 fps
Resolution : 8 bits
Colorimetry : 4:2:0
Scan type : Progressive
Bits/(Pixel*Frame) : 0.223
Stream size : 980 MiB (88%)
Writing library : XviD 1.2.1 (UTC 2008-12-04)
Audio
ID : 1
Format : AC-3
Format/Info : Audio Coding 3
Codec ID : 2000
Duration : 1h 7mn
Bit rate mode : Constant
Bit rate : 256 Kbps
Channel(s) : 2 channels
Channel positions : Front: L R
Sampling rate : 48.0 KHz
Stream size : 124 MiB (11%)
Alignment : Split accross interleaves
Interleave, duration : 40 ms (1.00 video frame)
Interleave, preload duration : 500 ms

Информация из MediaInfo (Full)

General
Count : 265
Count of stream of this kind : 1
Kind of stream : General
Kind of stream : General
Stream identifier : 0
Count of video streams : 1
Count of audio streams : 1
Video_Format_List : MPEG-4 Visual
Video_Format_WithHint_List : MPEG-4 Visual (XviD)
Codecs Video : XviD
Audio_Format_List : AC-3
Audio_Format_WithHint_List : AC-3
Audio codecs : AC3
Complete name : E:\S.dnem.rojdeniya.1998.DVDRip.XviD.AC3.avi
Folder name : E:
File name : S.dnem.rojdeniya.1998.DVDRip.XviD.AC3
File extension : avi
Format : AVI
Format : AVI
Format/Info : Audio Video Interleave
Format/Extensions usually used : avi
InternetMediaType : video/vnd.avi
Interleaved : Yes
Codec : AVI
Codec : AVI
Codec/Info : Audio Video Interleave
Codec/Extensions usually used : avi
File size : 1162323968
File size : 1.08 GiB
File size : 1 GiB
File size : 1.1 GiB
File size : 1.08 GiB
File size : 1.082 GiB
Duration : 4062240
Duration : 1h 7mn
Duration : 1h 7mn 42s 240ms
Duration : 1h 7mn
Duration : 01:07:42.240
Overall bit rate : 2289030
Overall bit rate : 2 289 Kbps
Stream size : 4937275
Stream size : 4.71 MiB (0%)
Stream size : 5 MiB
Stream size : 4.7 MiB
Stream size : 4.71 MiB
Stream size : 4.709 MiB
Stream size : 4.71 MiB (0%)
Proportion of this stream : 0.00425
File creation date : UTC 2010-09-07 06:27:04.328
File creation date (local) : 2010-09-07 10:27:04.328
File last modification date : UTC 2010-09-07 06:28:01.930
File last modification date (loc : 2010-09-07 10:28:01.930
Writing application : VirtualDubMod 1.5.10.2 (build 2540/release)
Writing library : VirtualDubMod build 2540/release
Writing library : VirtualDubMod build 2540/release
Video
Count : 165
Count of stream of this kind : 1
Kind of stream : Video
Kind of stream : Video
Stream identifier : 0
ID : 0
ID : 0
Format : MPEG-4 Visual
Format profile : Advanced Simple@L5
Format settings : BVOP
Format settings, BVOP : Yes
Format settings, BVOP : Yes
Format settings, QPel : No
Format settings, QPel : No
Format settings, GMC : 0
Format settings, GMC : No warppoints
Format settings, Matrix : Default (MPEG)
Format settings, Matrix : Default (MPEG)
InternetMediaType : video/MP4V-ES
Codec ID : XVID
Codec ID/Hint : XviD
Codec ID/Url : http://mediaarea.net/XVID
Codec : XVID
Codec : XviD
Codec/Family : MPEG-4V
Codec/Info : XviD project
Codec/Url : http://www.xvid.org/Downloads.15.0.html
Codec/CC : XVID
Codec profile : Advanced Simple@L5
Codec settings : BVOP
Codec settings, Packet bitstream : No
Codec settings, BVOP : Yes
Codec settings, QPel : No
Codec settings, GMC : 0
Codec settings, GMC : No warppoints
Codec settings, Matrix : Default (MPEG)
Duration : 4062240
Duration : 1h 7mn
Duration : 1h 7mn 42s 240ms
Duration : 1h 7mn
Duration : 01:07:42.240
Bit rate : 2023317
Bit rate : 2 023 Kbps
Width : 688
Width : 688 pixels
Height : 528
Height : 528 pixels
Pixel aspect ratio : 1.000
Display aspect ratio : 1.303
Display aspect ratio : 4:3
Frame rate : 25.000
Frame rate : 25.000 fps
Frame count : 101556
Resolution : 8
Resolution : 8 bits
Colorimetry : 4:2:0
Scan type : Progressive
Scan type : Progressive
Interlacement : PPF
Interlacement : Progressive
Bits/(Pixel*Frame) : 0.223
Delay : 0
Delay : 00:00:00.000
Stream size : 1027400133
Stream size : 980 MiB (88%)
Stream size : 980 MiB
Stream size : 980 MiB
Stream size : 980 MiB
Stream size : 979.8 MiB
Stream size : 980 MiB (88%)
Proportion of this stream : 0.88392
Writing library : XviD0050
Writing library : XviD 1.2.1 (UTC 2008-12-04)
Writing library/Name : XviD
Writing library/Version : 1.2.1
Writing library/Date : UTC 2008-12-04
Audio
Count : 140
Count of stream of this kind : 1
Kind of stream : Audio
Kind of stream : Audio
Stream identifier : 0
ID : 1
ID : 1
Format : AC-3
Format/Info : Audio Coding 3
Codec ID : 2000
Codec : AC3
Codec : AC3
Codec/Family : AC3
Codec/Info : Dolby AC3
Codec/CC : 2000
Duration : 4062080
Duration : 1h 7mn
Duration : 1h 7mn 42s 80ms
Duration : 1h 7mn
Duration : 01:07:42.080
Bit rate mode : CBR
Bit rate mode : Constant
Bit rate : 256000
Bit rate : 256 Kbps
Channel(s) : 2
Channel(s) : 2 channels
Channel positions : Front: L R
Channel positions : 2/0/0
Sampling rate : 48000
Sampling rate : 48.0 KHz
SamplingCount : 194979840
Delay : 0
Delay : 00:00:00.000
Video delay : 0
Video0 delay : 0
Stream size : 129986560
Stream size : 124 MiB (11%)
Stream size : 124 MiB
Stream size : 124 MiB
Stream size : 124 MiB
Stream size : 124.0 MiB
Stream size : 124 MiB (11%)
Proportion of this stream : 0.11183
Alignment : Split
Alignment : Split accross interleaves
Interleave, duration : 1.00
Interleave, duration : 40
Interleave, duration : 40 ms (1.00 video frame)
Interleave, preload duration : 500
Interleave, preload duration : 500 ms
dialnorm : -31
dialnorm/String : -31 dB
compr : -11.02
compr/String : -11.02 dB

Двухминутный фрагмент DVDRip'а

http://multi-up.com/364126

To download the content you need:
1. Download and install torrent client [for Windows] or for mobile system
2. Click on [Download]
Attention.
If the test YOU are NOT a ROBOT - does not work, then You are using an outdated browser.
Install the current browser and click on [Download]
Security: torrent client is allowed by Kaspersky.

[asmlocator.ru].t300583.torrent 
Torrent: Registered [ 2017-01-04 23:35 ] · 1685D2A9674922F9C454423226B0B3ACB4508A4E

Download .torrent

Download

11 KB

Status: checked
Completed: 0 times
Size: 1.08 GB
terms.php
[Profile] [PM]
Display posts:    
Reply to topic

Current time is: 21-Aug 10:32

All times are UTC ± 0



You cannot post new topics in this forum
You cannot reply to topics in this forum
You cannot edit your posts in this forum
You cannot delete your posts in this forum
You cannot vote in polls in this forum
You cannot attach files in this forum
You can download files in this forum