Слепая птица (Борис Долин) [1963, детский фильм, фильм о животных, DVDRip]

Ответить на тему
Статистика раздачи
Размер:  744 MB   |    Зарегистрирован:  16 дней   |    Скачан:  0 раз

Полного источника не было: Никогда

 
   
 
 
Автор Сообщение

star21 ®

Пол: Не указан

Стаж: 1 год 2 месяца

Сообщений: 300211

Создавать темы 04-Янв-2017 19:15

[Цитировать]

Слепая птица
Жанр: детский фильм, фильм о животных
Год выпуска: 1963
Продолжительность: 01:03:21

Режиссёр: Борис Долин
В ролях: Володя Агеев, Олег Жаков, Вера Енютина, Алексей Грибов, Евгений Тетерин, Зоя Федорова, Владик Лукьянов, Оля Блок, Вася Зверев, Валериан Виноградов, Володя Андрюхин, Георгий Вицин, Николай Горлов, Нина Гребешкова, Георгий Милляр, Валентина Владимирова и другие
Описание: Трогательная история о том, как мальчик, внук смотрителя заповедника, проникшись состраданием к слепому птенцу пеликана, обратился к известному московскому профессору, чтобы вернуть птенцу зрение...
Качество видео: DVDRip
Формат видео: AVI
Видео: 640x480 (1.33:1), 25 fps, XviD build 73 ~1407 kbps avg, 0.18 bit/pixel
Аудио: 48 kHz, AC3 Dolby Digital, 2/0 (L,R) ch, ~224 kbps

MediaInfo

General
Complete name : H:\Слепая.птица.1963.dvdrip_[745]_[teko] .avi
Format : AVI
Format/Info : Audio Video Interleave
File size : 744 MiB
Duration : 1h 3mn
Overall bit rate : 1 641 Kbps
Writing application : VirtualDubMod 1.5.10.3 | www.virtualdub-fr.org || (build 2550/release)
Writing library : VirtualDubMod build 2550/release
Video
ID : 0
Format : MPEG-4 Visual
Format profile : Advanced Simple@L5
Format settings, BVOP : 2
Format settings, QPel : No
Format settings, GMC : No warppoints
Format settings, Matrix : Custom
Codec ID : XVID
Codec ID/Hint : XviD
Duration : 1h 3mn
Bit rate : 1 408 Kbps
Width : 640 pixels
Height : 480 pixels
Display aspect ratio : 4:3
Frame rate : 25.000 fps
Color space : YUV
Chroma subsampling : 4:2:0
Bit depth : 8 bits
Scan type : Progressive
Compression mode : Lossy
Bits/(Pixel*Frame) : 0.183
Stream size : 638 MiB (86%)
Writing library : XviD 73
Audio
ID : 1
Format : AC-3
Format/Info : Audio Coding 3
Mode extension : CM (complete main)
Format settings, Endianness : Big
Codec ID : 2000
Duration : 1h 3mn
Bit rate mode : Constant
Bit rate : 224 Kbps
Channel(s) : 2 channels
Channel positions : Front: L R
Sampling rate : 48.0 KHz
Frame rate : 31.250 fps (1536 spf)
Compression mode : Lossy
Stream size : 102 MiB (14%)
Alignment : Split accross interleaves
Interleave, duration : 40 ms (1.00 video frame)
Interleave, preload duratio : 500 ms
Релиз группы:
-
-

Если ваш рейтинг упадет ниже 0,3, вы не сможете скачивать торренты! Подробнее о рейтинге.

[asmlocator.ru].t300495.torrent 
Торрент: Зарегистрирован [ 2017-01-04 19:15 ] · A487B7E8F3C0265B38DFF2515BDF0CA18813DFDA

Скачать .torrent

Скачать

15 KB

Статус: проверено
Скачан: 0 раз
Размер: 744 MB
terms.php
[Профиль] [ЛС]
Показать сообщения:    
Ответить на тему

Текущее время: 21-Янв 15:25

Часовой пояс: UTC ± 0



Вы не можете начинать темы
Вы не можете отвечать на сообщения
Вы не можете редактировать свои сообщения
Вы не можете удалять свои сообщения
Вы не можете голосовать в опросах
Вы не можете прикреплять файлы к сообщениям
Вы можете скачивать файлы