(Pop) [CD] Братья Жуковы - Засыпай - 2015, FLAC (image+.cue), lossless

Ответить на тему
Статистика раздачи
Размер:  500 MB   |    Зарегистрирован:  3 месяца 27 дней   |    Скачан:  0 раз

Полного источника не было: 12 часов

 
   
 
 
Автор Сообщение

star21 ®

Пол: Не указан

Стаж: 1 год 5 месяцев

Сообщений: 300211

Создавать темы 31-Дек-2016 07:02

[Цитировать]

Братья Жуковы / Засыпай
Жанр: Pop
Носитель: CD
Страна-производитель диска (релиза): Россия
Год издания: 2015
Издатель (лейбл): Media Land
Страна исполнителя (группы): Россия
Аудиокодек: FLAC (*.flac)
Тип рипа: image+.cue
Битрейт аудио: lossless
Продолжительность: 0:52:24
Источник (релизер): Собственный лицензионный диск
Наличие сканов в содержимом раздачи: да
Треклист:
01. Засыпай
02. Не надо
03. Глупая
04. Летний вечер
05. Плачь (feat. Добре)
06. Девочка Люба
07. Когда же ты проснёшься
08. Увидимся в снах
09. Сердце
10. Нас больше нет
11. Она называла это любовью
12. Не заправлена кровать (feat. Добре)
13. Ты моё море
14. Глупая (Fresh Produce Lounge Mix)

Лог создания рипа

Exact Audio Copy V1.1 from 23. June 2015
Отчёт EAC об извлечении, выполненном 13. февраля 2016, 13:35
Братья Жуковы / Засыпай
Дисковод: PIONEER BD-RW BDR-202 Adapter: 1 ID: 0
Режим чтения : ДостоверностьИспользование точного потока : ДаОтключение кэша аудио : ДаИспользование указателей C2 : Нет
Коррекция смещения при чтении : 667Способность читать области Lead-in и Lead-out : НетЗаполнение пропущенных сэмплов тишиной : ДаУдаление блоков с тишиной в начале и конце : НетПри вычислениях CRC использовались нулевые сэмплы : ДаИнтерфейс : Встроенный Win32-интерфейс для Win NT/2000
Выходной формат : Пользовательский кодировщикВыбранный битрейт : 1024 kBit/sКачество : ВысокийДобавление ID3-тега : НетУтилита сжатия : C:\Program Files (x86)\Exact Audio Copy\Flac\flac.exeДополнительные параметры : -V -8 -T "Date=%year%" -T "Genre=%genre%" %source%
TOC извлечённого CD
Трек | Старт | Длительность | Начальный сектор | Конечный сектор --------------------------------------------------------------------- 1 | 0:00.00 | 3:36.23 | 0 | 16222 2 | 3:36.23 | 3:04.50 | 16223 | 30072 3 | 6:40.73 | 3:41.63 | 30073 | 46710 4 | 10:22.61 | 4:25.42 | 46711 | 66627 5 | 14:48.28 | 3:46.29 | 66628 | 83606 6 | 18:34.57 | 3:15.09 | 83607 | 98240 7 | 21:49.66 | 3:20.18 | 98241 | 113258 8 | 25:10.09 | 3:28.04 | 113259 | 128862 9 | 28:38.13 | 3:35.56 | 128863 | 145043 10 | 32:13.69 | 3:28.20 | 145044 | 160663 11 | 35:42.14 | 4:31.21 | 160664 | 181009 12 | 40:13.35 | 3:06.55 | 181010 | 195014 13 | 43:20.15 | 4:05.43 | 195015 | 213432 14 | 47:25.58 | 4:59.02 | 213433 | 235859
Характеристики диапазона извлечения и сообщения об ошибках
Выбранный диапазон
Имя файла E:\Братья Жуковы - Засыпай.wav
Пиковый уровень 100.0 % Скорость извлечения 6.4 X Качество диапазона 100.0 % CRC теста 93C56612 CRC копии 93C56612 Копирование... OK
Ошибок не произошло
Конец отчёта
==== Контрольная сумма отчёта 3A5AFCC41822728D4B22D2D7FC77AB8F38F5551646CDCEAB71D6DF3959A7D5F9 ====

Об альбоме (сборнике)

5 ноября 2015 года выходит долгожданный альбом братьев Жуковых, который получил название "Засыпай".
Сергей Жуков записал альбом с братом.
Но это не просто альбом, это совместная, партнёрская работа двух братьев Жуковых, которая направлена на то, чтобы разбить в два раза больше девичьих сердец и вызвать в два раза больше девичьих слез и переживаний, ведь лирики в этом альбоме вдвое больше.
«Засыпай» от братьев Жуковых - это двойная порция душевности, рассказов о любви, грусти и нежности.
Жуковы - это исключительно лирика, песни которые слушая думаешь и размышляешь. Это истории, которые происходили в жизни каждого, ведь любовь бывает разной, и это всегда болезненно, но очень наполняет.
В альбоме много дуэтных песен и сольных треков братьев, а первые синглы с альбома уже звучат на радиостанциях –«Ты мое море», «Увидимся в снах». И в скором времени на радиоволнах появится следующий трек с альбома.
«Засыпай» это 14 треков, 6 лет записи и многие, разные периоды всей жизни Сергея и Михаила. Это крупинки собранные с десятилетий - слова, мысли, музыка.

Состав

Сергей Жуков, Михаил Жуков

Если ваш рейтинг упадет ниже 0,3, вы не сможете скачивать торренты! Подробнее о рейтинге.

[asmlocator.ru].t298482.torrent 
Торрент: Зарегистрирован [ 2016-12-31 07:01 ] · 458F4D460BE58783D82C2C667A7B1CE7633067E5

Скачать .torrent

Скачать

40 KB

Статус: проверено
Скачан: 0 раз
Размер: 500 MB
terms.php
[Профиль] [ЛС]
Показать сообщения:    
Ответить на тему

Текущее время: 28-Апр 06:10

Часовой пояс: UTC ± 0



Вы не можете начинать темы
Вы не можете отвечать на сообщения
Вы не можете редактировать свои сообщения
Вы не можете удалять свои сообщения
Вы не можете голосовать в опросах
Вы не можете прикреплять файлы к сообщениям
Вы можете скачивать файлы