Снупи и мелочь пузатая в кино / The Peanuts Movie (Стив Мартино / Steve Martino) [2015, США, Мультфильм, комедия, приключения, семейный, WEB-DLRip] Dub [iTunes]

Ответить на тему
Статистика раздачи
Размер:  1,37 GB   |    Зарегистрирован:  9 месяцев 20 дней   |    Скачан:  0 раз

Полного источника не было: Никогда

 
   
 
 
Автор Сообщение

star21 ®

Пол: Не указан

Стаж: 1 год 11 месяцев

Сообщений: 355767

Создавать темы 30-Дек-2016 19:02

[Цитировать]

Снупи и мелочь пузатая в кино

The Peanuts Movie
- Страна: США
Жанр: Мультфильм, комедия, приключения, семейный
Продолжительность: 01:33:33
Год выпуска: 2015-Перевод: Профессиональный (дублированный) [iTunes]
Русские субтитры: нет-Режиссёр: Стив Мартино / Steve Martino-Роли озвучивали: Тромбоун Шорти, Ребекка Блум, Анастасия Бредихина, Франческа Капальди, Кристин Ченоуэт, Александр Гарфин, Ной Джонстон, Билл Мелендес, Хэдли Белль Миллер, Мика Ревелли-Описание: Чарли Браун, Снупи, Люси, Линус и другие полюбившиеся персонажи комиксов «Мелочь пузатая» впервые появятся на большом экране в полнометражном анимационном фильме, снятом с использованием последних достижений 3D-анимации. Снупи - самый симпатичный пес в мире - к тому же, классный пилот - отправляется в невероятные воздушные приключения в погоне за главным злодеем Красным Бароном. В это время у его приятеля Чарли Брауна начинаются поистине эпические приключения!-[imdb]http://www.imdb.com/title/tt2452042[/imdb] -Качество: WEB-DLRip
Формат: AVI-Видео: 720x384 (1.85:1), 23.976 fps, XviD build 50, 1815 Kbps, 0.28 bit/pixel
Аудио: 48 kHz, AC3 Dolby Digital, 3/2 (L,C,R,l,r) + LFE ch, 384 Kbps
Субтитры: отсутствуют- -

Отчёт MediaInfo

General      Complete name : MeL04.pu3ataya.2015.D.WEB-DLRip.avi      Format : AVI      Format/Info : Audio Video Interleave      File size : 1.37 GiB      Duration : 1h 28mn      Overall bit rate : 2 206 Kbps      Movie name : MeL04.pu3ataya.2015.D.WEB-DLRip.1400Mb      Writing application : VirtualDubMod 1.5.10.2 (build 2540/release)      Original source form/Name : Movie   Video #0      ID : 0      Format : MPEG-4 Visual      Format profile : Advanced Simple@L5      Format settings, BVOP : 2      Format settings, QPel : No      Format settings, GMC : No warppoints      Format settings, Matrix : Default (MPEG)      Codec ID : XVID      Codec ID/Hint : XviD      Duration : 1h 28mn      Bit rate : 1 815 Kbps      Width : 720 pixels      Height : 384 pixels      Display aspect ratio : 1.85:1      Frame rate : 23.976 fps      Color space : YUV      Chroma subsampling : 4:2:0      Bit depth : 8 bits      Scan type : Progressive      Compression mode : Lossy      Bits/(Pixel*Frame) : 0.274      Stream size : 1.12 GiB (82%)      Writing library : XviD 1.2.1 (UTC 2008-12-04)   Audio #1      ID : 1      Format : AC-3      Format/Info : Audio Coding 3      Mode extension : CM (complete main)      Format settings, Endianness : Big      Codec ID : 2000      Duration : 1h 28mn      Bit rate mode : Constant      Bit rate : 384 Kbps      Channel(s) : 6 channels      Channel positions : Front: L C R, Side: L R, LFE      Sampling rate : 48.0 KHz      Bit depth : 16 bits      Compression mode : Lossy      Stream size : 242 MiB (17%)      Alignment : Split accross interleaves      Interleave, duration : 42 ms (1.01 video frame)      Interleave, preload duration : 500 ms

Скриншоты

Для скачки контента: [Установить программу-клиент] и кликнуть по - Скачать

[asmlocator.ru].t298424.torrent 
Торрент: Зарегистрирован [ 2016-12-30 19:01 ] · 73A4C14063DEC167D854E4F04DCD33B1669CA8E1

Скачать .torrent

Скачать

14 KB

Статус: проверено
Скачан: 0 раз
Размер: 1,37 GB
terms.php
[Профиль] [ЛС]
Показать сообщения:    
Ответить на тему

Текущее время: 20-Окт 08:38

Часовой пояс: UTC ± 0



Вы не можете начинать темы
Вы не можете отвечать на сообщения
Вы не можете редактировать свои сообщения
Вы не можете удалять свои сообщения
Вы не можете голосовать в опросах
Вы не можете прикреплять файлы к сообщениям
Вы можете скачивать файлы