(Classical) Robert Schumann - Cello Concerto; Works for Cello and Piano - Anne Gastinel, Claire Desert; Orchestre Philharmonique de Liege, Louis Langree - 2001, FLAC (image+.cue) lossless

Ответить на тему
Статистика раздачи
Размер:  252 MB   |    Зарегистрирован:  9 месяцев 18 дней   |    Скачан:  0 раз

Полного источника не было: Никогда

 
   
 
 
Автор Сообщение

star21 ®

Пол: Не указан

Стаж: 1 год 11 месяцев

Сообщений: 355767

Создавать темы 29-Дек-2016 18:55

[Цитировать]

Robert Schumann - Cello Concerto; Works for Cello and Piano - Anne Gastinel, Claire Désert; Orchestre Philharmonique de Liège, Louis Langrée
Жанр: Classical
Страна-производитель диска: France
Год издания диска: 2001
Издатель (лейбл): Naive
Номер по каталогу: V4897
Дата записи: 2001
Аудиокодек: FLAC
Тип рипа: image+.cue
Битрейт аудио: lossless
Продолжительность: 59:26
Источник: собственный рип
Наличие сканов в содержимом раздачи: да
Треклист:
Robert Schumann (1810-1856)
[1]-[3] Cello Concerto in A minor, Op.129 (1850)
[4]-[6] Fantasiestücke, Op.73 (1849)
[7]-[11] Fünf Stücke im Volkston, Op.102 (1849)
[12]-[13] Adagio & Allegro in A flat major, Op.70 (1849)
Исполнители:
Anne Gastinel cello
Claire Désert piano
Orchestre Philharmonique de Liège
Louis Langrée
conductor

Лог создания рипа

Exact Audio Copy V1.0 beta 3 from 29. August 2011
EAC extraction logfile from 30. May 2015, 16:11
Anne Gastinel / Schumann - Cello Concerto; Works for Cello and Piano
Used drive : HL-DT-STDVDRAM GU70N Adapter: 0 ID: 0
Read mode : SecureUtilize accurate stream : YesDefeat audio cache : YesMake use of C2 pointers : No
Read offset correction : 48Overread into Lead-In and Lead-Out : NoFill up missing offset samples with silence : YesDelete leading and trailing silent blocks : NoNull samples used in CRC calculations : YesUsed interface : Native Win32 interface for Win NT & 2000
Used output format : User Defined EncoderSelected bitrate : 128 kBit/sQuality : HighAdd ID3 tag : NoCommand line compressor : C:\Program Files (x86)\Exact Audio Copy\Flac\flac.exeAdditional command line options : -V -8 -T "Date=%year%" -T "Genre=%genre%" %source%
TOC of the extracted CD
Track | Start | Length | Start sector | End sector --------------------------------------------------------- 1 | 0:00.00 | 10:52.27 | 0 | 48926 2 | 10:52.27 | 4:37.18 | 48927 | 69719 3 | 15:29.45 | 7:31.70 | 69720 | 103614 4 | 23:01.40 | 3:21.45 | 103615 | 118734 5 | 26:23.10 | 3:13.50 | 118735 | 133259 6 | 29:36.60 | 4:08.32 | 133260 | 151891 7 | 33:45.17 | 3:18.20 | 151892 | 166761 8 | 37:03.37 | 3:57.40 | 166762 | 184576 9 | 41:01.02 | 3:52.58 | 184577 | 202034 10 | 44:53.60 | 1:49.07 | 202035 | 210216 11 | 46:42.67 | 3:03.20 | 210217 | 223961 12 | 49:46.12 | 4:48.08 | 223962 | 245569 13 | 54:34.20 | 4:49.57 | 245570 | 267301
Range status and errors
Selected range
Filename C:\temp\V4897 Schumann - Cello Concerto; Works for Cello and Piano\Schumann - Cello Concerto; Works for Cello and Piano.wav
Peak level 99.9 % Extraction speed 5.1 X Range quality 99.9 % Test CRC A540142C Copy CRC A540142C Copy OK
No errors occurred
AccurateRip summary
Track 1 accurately ripped (confidence 12) [2238B44B] (AR v2)Track 2 accurately ripped (confidence 12) [38B622F0] (AR v2)Track 3 accurately ripped (confidence 12) [B60F8572] (AR v2)Track 4 accurately ripped (confidence 12) [2755A6F3] (AR v2)Track 5 accurately ripped (confidence 12) [8618AA43] (AR v2)Track 6 accurately ripped (confidence 12) [C78160CB] (AR v2)Track 7 accurately ripped (confidence 12) [0ECE94D1] (AR v2)Track 8 accurately ripped (confidence 12) [FD08E47A] (AR v2)Track 9 accurately ripped (confidence 12) [AC8B8930] (AR v2)Track 10 accurately ripped (confidence 12) [2E97E499] (AR v2)Track 11 accurately ripped (confidence 12) [92FEE834] (AR v2)Track 12 accurately ripped (confidence 12) [A3E059C6] (AR v2)Track 13 accurately ripped (confidence 12) [1588920E] (AR v2)
All tracks accurately ripped
End of status report
==== Log checksum 7AF445204C625853DDC4CC55646A6B5216E76BA8500DE31B86194821666FBA10 ====

Для скачки контента: [Установить программу-клиент] и кликнуть по - Скачать

[asmlocator.ru].t298360.torrent 
Торрент: Зарегистрирован [ 2016-12-29 18:55 ] · 5D714CE204F120A8CDFF0C3ED2E9DFC015AA9A37

Скачать .torrent

Скачать

42 KB

Статус: проверено
Скачан: 0 раз
Размер: 252 MB
terms.php
[Профиль] [ЛС]
Показать сообщения:    
Ответить на тему

Текущее время: 17-Окт 07:45

Часовой пояс: UTC ± 0



Вы не можете начинать темы
Вы не можете отвечать на сообщения
Вы не можете редактировать свои сообщения
Вы не можете удалять свои сообщения
Вы не можете голосовать в опросах
Вы не можете прикреплять файлы к сообщениям
Вы можете скачивать файлы