[MUZBIZNES] Создание Deep/Future House ремикса [2015, RUS]

Ответить на тему
Статистика раздачи
Размер:  1,26 GB   |    Зарегистрирован:  5 месяцев 27 дней   |    Скачан:  0 раз

Полного источника не было: 30 дней

 
   
 
 
Автор Сообщение

star21 ®

Пол: Не указан

Стаж: 1 год 7 месяцев

Сообщений: 299353

Создавать темы 29-Дек-2016 18:55

[Цитировать]

MUZBIZNES. Создание Deep/Future House ремикса
Год выпуска: 2015
Производитель: MUZBIZNES
Сайт производителя: vk.com/mb_kursi?w=wall-71974790_89
Автор: Алексей Разумов
Продолжительность: 2:32:40
Тип раздаваемого материала: Видеоурок
Язык: Русский
Описание:
01. Как подобрать ноты к акапелле?
02. Работа с сеткой и грувом
03. Создание фирменного Deep House баса
04. Создание Build Up эффектов
05. Создание дропа
06. Работа с мелкими басовыми элементами
07. Создание ямы
08. Работы с малым барабаном перед дропом
09. Создание пэдов для атмосферы
10. Интересная техника при работе с лупами
11. Советы по библиотекам сэмплов
Алексей Разумов - музыкальный продюсер, аранжировщик и саунддизайнер. Профессионал. Рассказывает о создании Deep/Future House ремикса.

MediaInfo

General
Complete name : Создание deep house ремикса.mp4
Format : MPEG-4
Format profile : Base Media / Version 2
Codec ID : mp42
File size : 1.26 GiB
Duration : 2h 32mn
Overall bit rate mode : Variable
Overall bit rate : 1 184 Kbps
Encoded date : UTC 2015-10-11 17:42:31
Tagged date : UTC 2015-10-11 17:42:31
gsst : 0
gstd : 9150471
Video
ID : 1
Format : AVC
Format/Info : Advanced Video Codec
Format profile : High@L3.1
Format settings, CABAC : Yes
Format settings, ReFrames : 1 frame
Format settings, GOP : M=1, N=60
Codec ID : avc1
Codec ID/Info : Advanced Video Coding
Duration : 2h 32mn
Bit rate : 990 Kbps
Maximum bit rate : 4 046 Kbps
Width : 1 280 pixels
Height : 720 pixels
Display aspect ratio : 16:9
Frame rate mode : Constant
Frame rate : 30.000 fps
Color space : YUV
Chroma subsampling : 4:2:0
Bit depth : 8 bits
Scan type : Progressive
Bits/(Pixel*Frame) : 0.036
Stream size : 1.05 GiB (84%)
Tagged date : UTC 2015-10-11 17:47:21
Audio
ID : 2
Format : AAC
Format/Info : Advanced Audio Codec
Format profile : LC
Codec ID : 40
Duration : 2h 32mn
Bit rate mode : Variable
Bit rate : 192 Kbps
Maximum bit rate : 202 Kbps
Channel(s) : 2 channels
Channel positions : Front: L R
Sampling rate : 44.1 KHz
Compression mode : Lossy
Stream size : 209 MiB (16%)
Title : IsoMedia File Produced by Google, 5-11-2011
Encoded date : UTC 2015-10-11 17:45:14
Tagged date : UTC 2015-10-11 17:47:21

Скриншоты

Если ваш рейтинг упадет ниже 0,3, вы не сможете скачивать торренты! Подробнее о рейтинге.

[asmlocator.ru].t298350.torrent 
Торрент: Зарегистрирован [ 2016-12-29 18:55 ] · 78C927A810C8FCFBA06240AD51002F3F4B3DD73C

Скачать .torrent

Скачать

26 KB

Статус: проверено
Скачан: 0 раз
Размер: 1,26 GB
terms.php
[Профиль] [ЛС]
Показать сообщения:    
Ответить на тему

Текущее время: 26-Июн 15:29

Часовой пояс: UTC ± 0



Вы не можете начинать темы
Вы не можете отвечать на сообщения
Вы не можете редактировать свои сообщения
Вы не можете удалять свои сообщения
Вы не можете голосовать в опросах
Вы не можете прикреплять файлы к сообщениям
Вы можете скачивать файлы