(Avtorskaya pesnya) [CD] Геворк Топчиян - Грань перемен и предчувствий - 2010, FLAC (image+.cue), lossless

Ответить на тему
Статистика раздачи
Размер:  459 MB   |    Зарегистрирован:  4 месяца   |    Скачан:  0 раз

Полного источника не было: Никогда

 
   
 
 
Автор Сообщение

star21 ®

Пол: Не указан

Стаж: 1 год 5 месяцев

Сообщений: 300211

Создавать темы 29-Дек-2016 12:05

[Цитировать]

Геворк Топчиян / Грань перемен и предчувствий
Жанр: Авторская песня
Носитель: CD
Страна-производитель диска (релиза): Россия
Год издания: 2010
Издатель (лейбл): ООО РекордсМен
Аудиокодек: FLAC (*.flac)
Тип рипа: image+.cue
Битрейт аудио: 913 Кбит/сек
Продолжительность: 01:09:38
Источник (релизер): Borkop
Наличие сканов в содержимом раздачи: да

скрытый текст

В 1985 году, познакомившись с прекрасным поэтом, бардом, сценаристом актёром и режиссёром Леонидом Семаковым, мы включили в репертуар программу его песен. Мы проводили совместные репетиции, готовили программу его песен. Но успели не всё. 08/08/1988 он умер. Скоропостижно. На творческом взлёте. Это было неожиданно и страшно... Помню прощание у гроба во дворе на Таганке, вдруг появляется гитара и парни говорят мне, спой «Осенний вальс». И спели... Не знаю, не знаю, правильно ли ?... Но было. Был солнечный день, ветер колыхал листву деревьев, тенями гладившую мёртвое лицо Леонида Павловича...
Я по сей день исполняю и люблю его песни. И дело не только в милой моему сердцу глубине и ироничности поэзии. Это память о нашей второй молодости... «...Тридцать лет – это время свершений...» В 2010 году я записал и выпустил диск «Грань перемен и предчувствий» с песнями Леонида Павловича Семакова. Я сделал программу его песен, ту, которую мы не успели закончить в 1988-м.
Сайт исполнителя http://www.gevorktopchiyan.ru/avtobiografiya
Треклист:
[04:03] 01. Геворк Топчиян - Осень
[03:30] 02. Геворк Топчиян - Кому что снится
[04:50] 03. Геворк Топчиян - Кукушка
[05:23] 04. Геворк Топчиян - Метелица
[03:43] 05. Геворк Топчиян - Философическй канкан
[04:25] 06. Геворк Топчиян - Монолог Фомы Гордеева
[05:19] 07. Геворк Топчиян - В ночи на Покрова
[04:06] 08. Геворк Топчиян - Вальс буриме
[05:51] 09. Геворк Топчиян - Застольная
[03:00] 10. Геворк Топчиян - Куплеты инквизиторов
[06:58] 11. Геворк Топчиян - Песня старого птицелова
[04:54] 12. Геворк Топчиян - Цыганская легенда
[04:29] 13. Геворк Топчиян - Песня пьяного интеллигента
[04:17] 14. Геворк Топчиян - Степкина песня
[04:42] 15. Геворк Топчиян - Нескучный сад

Лог создания рипа

Exact Audio Copy V1.0 beta 6 from 9. April 2015
Отчёт EAC об извлечении, выполненном 12. февраля 2016, 11:49
Геворк Топчиян / Грань Перемен И Предчувствий
Дисковод: Optiarc DVD RW AD-7203A Adapter: 1 ID: 0
Режим чтения : ДостоверностьИспользование точного потока : ДаОтключение кэша аудио : ДаИспользование указателей C2 : Нет
Коррекция смещения при чтении : 48Способность читать области Lead-in и Lead-out : НетЗаполнение пропущенных сэмплов тишиной : ДаУдаление блоков с тишиной в начале и конце : НетПри вычислениях CRC использовались нулевые сэмплы : ДаИнтерфейс : Встроенный Win32-интерфейс для Win NT/2000
Выходной формат : Пользовательский кодировщикВыбранный битрейт : 896 kBit/sКачество : ВысокийДобавление ID3-тега : НетУтилита сжатия : C:\Program Files\Exact Audio Copy\FLAC\FLAC.EXEДополнительные параметры : -6 -V -T "ARTIST=%artist%" -T "TITLE=%title%" -T "ALBUM=%albumtitle%" -T "DATE=%year%" -T "TRACKNUMBER=%tracknr%" -T "GENRE=%genre%" -T "COMMENT=%comment%" -T "BAND=%albuminterpret%" -T "ALBUMARTIST=%albuminterpret%" -T "COMPOSER=%composer%" %haslyrics%--tag-from-file=LYRICS="%lyricsfile%"%haslyrics% -T "DISCNUMBER=%cdnumber%" -T "TOTALDISCS=%totalcds%" -T "TOTALTRACKS=%numtracks%" %hascover%--picture="%coverfile%"%hascover% %source% -o %dest%
TOC извлечённого CD
Трек | Старт | Длительность | Начальный сектор | Конечный сектор --------------------------------------------------------------------- 1 | 0:00.00 | 4:03.14 | 0 | 18238 2 | 4:03.14 | 3:30.40 | 18239 | 34028 3 | 7:33.54 | 4:50.66 | 34029 | 55844 4 | 12:24.45 | 5:23.68 | 55845 | 80137 5 | 17:48.38 | 3:43.12 | 80138 | 96874 6 | 21:31.50 | 4:25.00 | 96875 | 116749 7 | 25:56.50 | 5:19.74 | 116750 | 140748 8 | 31:16.49 | 4:06.13 | 140749 | 159211 9 | 35:22.62 | 5:51.66 | 159212 | 185602 10 | 41:14.53 | 3:00.51 | 185603 | 199153 11 | 44:15.29 | 6:58.63 | 199154 | 230566 12 | 51:14.17 | 4:54.29 | 230567 | 252645 13 | 56:08.46 | 4:29.48 | 252646 | 272868 14 | 60:38.19 | 4:17.68 | 272869 | 292211 15 | 64:56.12 | 4:42.07 | 292212 | 313368
Характеристики диапазона извлечения и сообщения об ошибках
Выбранный диапазон
Имя файла I:\Аудио\Flack\Геворк Топчиян\Геворк Топчиян - Грань Перемен И Предчувствий.wav
Пиковый уровень 98.9 % Скорость извлечения 4.2 X Качество диапазона 100.0 % CRC копии 0741D919 Копирование... OK
Ошибок не произошло
Конец отчёта
==== Контрольная сумма отчёта D74CB0DB0FD3062017C4AF9244310ABB354F6BA531361157BAC3D1F4EDFE43DD ====

Если ваш рейтинг упадет ниже 0,3, вы не сможете скачивать торренты! Подробнее о рейтинге.

[asmlocator.ru].t298005.torrent 
Торрент: Зарегистрирован [ 2016-12-29 12:05 ] · 2662CFF5E6ADF130207D9C643292472563352ACB

Скачать .torrent

Скачать

19 KB

Статус: проверено
Скачан: 0 раз
Размер: 459 MB
terms.php
[Профиль] [ЛС]
Показать сообщения:    
Ответить на тему

Текущее время: 29-Апр 23:19

Часовой пояс: UTC ± 0



Вы не можете начинать темы
Вы не можете отвечать на сообщения
Вы не можете редактировать свои сообщения
Вы не можете удалять свои сообщения
Вы не можете голосовать в опросах
Вы не можете прикреплять файлы к сообщениям
Вы можете скачивать файлы