(Melodic Black) [CD] Carach Angren - This Is No Fairytale (Limited Edition) Digibox - 2015, FLAC (image+.cue), lossless

Ответить на тему
Статистика раздачи
Размер:  640 MB   |    Зарегистрирован:  1 год   |    Скачан:  0 раз

Полного источника не было: 5 месяцев 12 дней

 
   
 
 
Автор Сообщение

star21 ®

Пол: Не указан

Стаж: 1 год 9 месяцев

Сообщений: 355776

Создавать темы 25-Июл-2016 14:45

[Цитировать]

Carach Angren / This Is No Fairytale (Limited Edition) Digibox
Жанр: Melodic Black
Носитель: CD
Страна-производитель диска (релиза): Франция
Год издания: 2015
Издатель (лейбл): Season Of Mist
Номер по каталогу: SOM 347D
Страна исполнителя (группы): Нидерланды
Аудиокодек: FLAC (*.flac)
Тип рипа: image+.cue
Битрейт аудио: lossless
Продолжительность: 46:53
Источник (релизер): Собственный Диск
Наличие сканов в содержимом раздачи: да
Треклист:
01.Once Upon A Time
02.There's No Place Like Home
03.When Crows Tick On Windows
04.Two Flies Flew Into A Black Sugar Cobweb
05.Dreaming Of A Nightmare In Eden
06.Possessed By A Craft Of Witchery
07.Killed And Served By The Devil
08.The Witch Perished In Flames
09.Tragedy Ever After
Bonus Track:
10.Dreaming Of A Nightmare In Eden (Orchestral Version)

Лог создания рипа

Exact Audio Copy V1.0 beta 3 from 29. August 2011
Отчёт EAC об извлечении, выполненном 4. марта 2015, 12:00
Carach Angren / This Is No Fairytale
Дисковод: PIONEER DVD-RW DVR-221L Adapter: 0 ID: 0
Режим чтения : ДостоверностьИспользование точного потока : ДаОтключение кэша аудио : ДаИспользование указателей C2 : Нет
Коррекция смещения при чтении : 6Способность читать области Lead-in и Lead-out : НетЗаполнение пропущенных сэмплов тишиной : ДаУдаление блоков с тишиной в начале и конце : НетПри вычислениях CRC использовались нулевые сэмплы : ДаИнтерфейс : Встроенный Win32-интерфейс для Win NT/2000
Выходной формат : Пользовательский кодировщикВыбранный битрейт : 768 kBit/sКачество : ВысокийДобавление ID3-тега : НетУтилита сжатия : C:\Program Files (x86)\Exact Audio Copy\FLAC\FLAC.EXEДополнительные параметры : -6 -V -T "ARTIST=%artist%" -T "TITLE=%title%" -T "ALBUM=%albumtitle%" -T "DATE=%year%" -T "TRACKNUMBER=%tracknr%" -T "GENRE=%genre%" -T "COMMENT=%comment%" -T "BAND=%albuminterpret%" -T "ALBUMARTIST=%albuminterpret%" -T "COMPOSER=%composer%" %haslyrics%--tag-from-file=LYRICS="%lyricsfile%"%haslyrics% -T "DISCNUMBER=%cdnumber%" -T "TOTALDISCS=%totalcds%" -T "TOTALTRACKS=%numtracks%" %hascover%--picture="%coverfile%"%hascover% %source% -o %dest%
TOC извлечённого CD
Трек | Старт | Длительность | Начальный сектор | Конечный сектор --------------------------------------------------------------------- 1 | 0:00.00 | 1:36.56 | 0 | 7255 2 | 1:36.56 | 4:32.20 | 7256 | 27675 3 | 6:09.01 | 6:15.74 | 27676 | 55874 4 | 12:25.00 | 7:49.00 | 55875 | 91049 5 | 20:14.00 | 2:37.37 | 91050 | 102861 6 | 22:51.37 | 6:10.38 | 102862 | 130649 7 | 29:02.00 | 4:09.00 | 130650 | 149324 8 | 33:11.00 | 5:46.56 | 149325 | 175330 9 | 38:57.56 | 5:22.30 | 175331 | 199510 10 | 44:20.11 | 2:32.53 | 199511 | 210963
Характеристики диапазона извлечения и сообщения об ошибках
Выбранный диапазон
Имя файла F:\Торент\Carach Angren-2015-This Is No Fairytale\Carach Angren - This Is No Fairytale.wav
Пиковый уровень 100.0 % Скорость извлечения 7.0 X Качество диапазона 100.0 % CRC теста 3DF38AF5 CRC копии 3DF38AF5 Копирование... OK
Ошибок не произошло
AccurateRip: сводка
Трек 1 отсутствует в базе данныхТрек 2 отсутствует в базе данныхТрек 3 отсутствует в базе данныхТрек 4 отсутствует в базе данныхТрек 5 отсутствует в базе данныхТрек 6 отсутствует в базе данныхТрек 7 отсутствует в базе данныхТрек 8 отсутствует в базе данныхТрек 9 отсутствует в базе данныхТрек 10 отсутствует в базе данных
Ни одного трека нет в базе AccurateRip
Конец отчёта
Доп. информация: Новый Альбом

Для скачки контента: [Установить программу-клиент] и кликнуть по - Скачать

[asmlocator.ru].t180119.torrent 
Торрент: Зарегистрирован [ 2016-07-25 14:45 ] · BAAA4EF46415480FBE5BC363E91B4A087689138D

Скачать .torrent

Скачать

16 KB

Статус: проверено
Скачан: 0 раз
Размер: 640 MB
terms.php
[Профиль] [ЛС]

JeNeMange

Пол: Не указан

Стаж: 5 месяцев 12 дней

Сообщений: 1

Создавать темы 10-Мар-2017 16:11 (спустя 7 месяцев 16 дней)

[Цитировать]

Спасибо
[Профиль] [ЛС]
Показать сообщения:    
Ответить на тему

Текущее время: 23-Авг 13:52

Часовой пояс: UTC ± 0



Вы не можете начинать темы
Вы не можете отвечать на сообщения
Вы не можете редактировать свои сообщения
Вы не можете удалять свои сообщения
Вы не можете голосовать в опросах
Вы не можете прикреплять файлы к сообщениям
Вы можете скачивать файлы