(Melodic Hard Rock) Metal Praise - Metal Praise - 1992, MP3, 320 kbps

Reply to topic
DL-List and Torrent activity
Size:  105 MB   |    Registered:  3 years   |    Completed:  0 times

Seeder not seen: Never

 
   
 
 
Author Message

star21 ®

Gender: Female

Longevity: 3 years 8 months

Posts: 552033

Location: Екатеринбург

Post 20-Jul-2016 04:10

[Quote]

Metal Praise - Metal Praise Жанр: Melodic Hard Rock
Страна исполнителя (группы): USA
Год издания: 1992
Аудиокодек: MP3
Тип рипа: tracks
Битрейт аудио: 320 kbps
Продолжительность: 41:23.38
Наличие сканов в содержимом раздачи:
Треклист:
01. Spirit Song
02. Rock Of Ages
03. O Come, O Come, Emmanuel
04. What A Friend We Have In Jesus
05. Holy, Holy, Holy
06. I Love You Lord
07. Jehovah Jireh
08. He's The Lord
09. Life Begun
10. We Exalt Thee
Доп. инфо: Еще одна жемчужина хард-рока из далеких 80-х...

Состав

Metal Praise - What happens when the best rockers of the 80's get together to worship the best way they know how? In metal form! Rex Scott singer from X-SINNER & ZION, Rex Carroll legendary guitarist from WHITECROSS, Glenn Kaiser from REZ, Bill Heller from FIGHTER, Jeff Sheetz and Jim Laverde from BARREN CROSS! Wow what a line up huh? Thsi si not a mix cd of Groups this is all those guys playing on different metal worship songs. Great for any fan of the groups they are from or of metal! Great masterpiece!
Rey Parra - vocals
Bill Heller - guitar
Rex Scott - vocals
Bruce Swift - guitar
Dean Cutinelli - guitar
Bill Heller - rhythm guitar
Glenn Kaiser - acoustic guitar
Les Carlsen - vocals
Rex Caroll - lead & rhythm guitars
Bruce Swift - rhythtm guitar
Jeff Scheetz - lead guitar
Doug Day - cymbals, percussion
Jim LaVerde - bass
Christopher Mosher - keyboards
About http://melodic-hardrock.com/metal-praise-metal-praise-1992/
Инфо: http://www.discogs.com/Metal-Praise-Metal-Praise/release/3615401
Приобрести http://www.amazon.com/Praise-Carlsen-Scheetz-laverde-Carroll/dp/B00192SL3Q

Тех.

foobar2000 1.1.18 / Dynamic Range Meter 1.1.1
log date: 2015-05-27 14:47:13
--------------------------------------------------------------------------------
Analyzed: Metal Praise / Metal Praise
--------------------------------------------------------------------------------
DR Peak RMS Duration Track
--------------------------------------------------------------------------------
DR11 0.00 dB -13.12 dB 5:10 01-Spirit Song
DR10 0.00 dB -11.30 dB 4:37 02-Rock Of Ages
DR11 0.00 dB -13.54 dB 3:38 03-O Come, O Come, Emmanuel
DR12 0.00 dB -13.50 dB 3:16 04-What A Friend We Have In Jesus
DR8 0.00 dB -10.87 dB 4:57 05-Holy, Holy, Holy
DR10 -0.32 dB -14.88 dB 1:33 06-I Love You Lord
DR10 0.00 dB -10.88 dB 3:57 07-Jehovah Jireh
DR9 0.00 dB -11.30 dB 3:17 08-He's The Lord
DR10 0.00 dB -12.53 dB 5:37 09-Life Begun
DR9 0.00 dB -11.89 dB 5:22 10-We Exalt Thee
--------------------------------------------------------------------------------
Number of tracks: 10
Official DR value: DR10
Samplerate: 44100 Hz
Channels: 2
Bitrate: 320 kbps
Codec: MP3
================================================================================

To download the content you need:
1. Download and install torrent client [for Windows] or for mobile system
2. Click on [Download]
Attention.
If the test YOU are NOT a ROBOT - does not work, then You are using an outdated browser.
Install the current browser and click on [Download]
Security: torrent client is allowed by Kaspersky.

[asmlocator.ru].t175650.torrent 
Torrent: Registered [ 2016-07-20 04:10 ] · CCF124A338B96A2B3E927C20B1D033D4FFDF86DD

Download .torrent

Download

18 KB

Status: checked
Completed: 0 times
Size: 105 MB
terms.php
[Profile] [PM]
Display posts:    
Reply to topic

Current time is: 23-Jul 16:48

All times are UTC ± 0



You cannot post new topics in this forum
You cannot reply to topics in this forum
You cannot edit your posts in this forum
You cannot delete your posts in this forum
You cannot vote in polls in this forum
You cannot attach files in this forum
You can download files in this forum