(Melodic Rock | AOR) [CD] Peo - Look What I\'ve Started - 1995(Reissue 2005), FLAC (image+.cue), lossless

Reply to topic
DL-List and Torrent activity
Size:  495 MB   |    Registered:  2 years 9 months   |    Completed:  0 times

Seeder not seen: Never

 
   
 
 
Author Message

star21 ®

Gender: Female

Longevity: 3 years 5 months

Posts: 552392

Location: Екатеринбург

Post 19-Jul-2016 23:00

[Quote]

Peo - Look What I've Started Страна: Sweden
Жанр: Melodic Rock | AOR
Носитель: CD
Страна-производитель диска: Germany
Год издания: 1995(Reissue 2005)
Издатель (лейбл): MTM Classix
Номер по каталогу: 0681-121
Аудиокодек: FLAC (*.flac)
Тип рипа: image+.cue
Битрейт аудио: lossless
Продолжительность: 01.08.32
Источник (релизер): detochkin.79
Наличие сканов в содержимом раздачи: да
Треклист:
01. Could This Be Love
02. Doesn't Matter To Me
03. Only One Love
04.Two Strong Arms
05. Long Time No See
06. Endless Waiting
07. Day And Night
08. Good Soul Companion
09. Two Wheels On Fire
10. Don't You Ever Leave Me Now
11. Looking For Love
12. Can't Bring Me Down
13. Queen Of The Night [Bonus Track]
14. Calling Paradise [Bonus Track]
15. Still Believe [Bonus Track]
16. I Must Be Dreaming [Bonus Track]
17. Amanda [Instrumental] [Bonus Track]

Лог создания рипа

Exact Audio Copy V1.0 beta 3 from 29. August 2011
EAC extraction logfile from 29. May 2012, 14:07
PEO / Look What I've Started
Used drive : Optiarc DVD RW AD-7203A Adapter: 0 ID: 0
Read mode : SecureUtilize accurate stream : YesDefeat audio cache : YesMake use of C2 pointers : No
Read offset correction : 48Overread into Lead-In and Lead-Out : NoFill up missing offset samples with silence : YesDelete leading and trailing silent blocks : NoNull samples used in CRC calculations : YesUsed interface : Native Win32 interface for Win NT & 2000
Used output format : User Defined EncoderSelected bitrate : 128 kBit/sQuality : HighAdd ID3 tag : NoCommand line compressor : C:\Program Files\Exact Audio Copy\Flac\flac.exeAdditional command line options : -V -8 -T "Date=%year%" -T "Genre=%genre%" %source%
TOC of the extracted CD
Track | Start | Length | Start sector | End sector --------------------------------------------------------- 1 | 0:00.00 | 3:41.63 | 0 | 16637 2 | 3:41.63 | 3:32.31 | 16638 | 32568 3 | 7:14.19 | 3:37.64 | 32569 | 48907 4 | 10:52.08 | 3:54.13 | 48908 | 66470 5 | 14:46.21 | 3:49.24 | 66471 | 83669 6 | 18:35.45 | 3:43.58 | 83670 | 100452 7 | 22:19.28 | 3:53.70 | 100453 | 117997 8 | 26:13.23 | 3:19.23 | 117998 | 132945 9 | 29:32.46 | 4:02.17 | 132946 | 151112 10 | 33:34.63 | 3:35.21 | 151113 | 167258 11 | 37:10.09 | 4:19.68 | 167259 | 186751 12 | 41:30.02 | 4:44.01 | 186752 | 208052 13 | 46:14.03 | 4:15.56 | 208053 | 227233 14 | 50:29.59 | 3:41.34 | 227234 | 243842 15 | 54:11.18 | 4:52.29 | 243843 | 265771 16 | 59:03.47 | 5:06.71 | 265772 | 288792 17 | 64:10.43 | 4:34.27 | 288793 | 309369
Range status and errors
Selected range
Filename P:\Peo\PEO - Look What I've Started.wav
Peak level 100.0 % Extraction speed 4.0 X Range quality 100.0 % Test CRC A9887BA3 Copy CRC A9887BA3 Copy OK
No errors occurred
AccurateRip summary
Track 1 accurately ripped (confidence 3) [0D4B174E] (AR v1)Track 2 accurately ripped (confidence 2) [FE47C9CA] (AR v1)Track 3 accurately ripped (confidence 2) [BF231838] (AR v1)Track 4 accurately ripped (confidence 3) [B0FD2948] (AR v1)Track 5 accurately ripped (confidence 2) [9A14ADB4] (AR v1)Track 6 accurately ripped (confidence 2) [2C2AEA9E] (AR v1)Track 7 accurately ripped (confidence 3) [23E20C76] (AR v1)Track 8 accurately ripped (confidence 3) [54F3FCA2] (AR v1)Track 9 accurately ripped (confidence 2) [5A0E45BE] (AR v1)Track 10 accurately ripped (confidence 3) [2D6C6D62] (AR v1)Track 11 accurately ripped (confidence 2) [113B83C0] (AR v1)Track 12 accurately ripped (confidence 2) [4F6A83FB] (AR v1)Track 13 accurately ripped (confidence 2) [0ECBD011] (AR v1)Track 14 accurately ripped (confidence 2) [A479C9C0] (AR v1)Track 15 accurately ripped (confidence 2) [0B952CEC] (AR v1)Track 16 accurately ripped (confidence 2) [EC679C9D] (AR v1)Track 17 accurately ripped (confidence 2) [B3B3C048] (AR v1)
All tracks accurately ripped
End of status report
==== Log checksum 89F40E44B103C3E512C4E92515F47E8165E74820C8D10053753D4AFF92845651 ====

Состав

Peo Pettersson Vocals, Keyboards
Ivan Persic - Guitar
Jan Nordbring - Bass
Tomas Varadi - Bass
Bengan Anderson - Drums
Marko Gronholm - Drums (Masquerade)
Per Nordbring - Drums
Hakan Nordling - Sax
Ulf Andersson - Backing Vocals (Masquerade)
Tony Niva - Backing Vocals (Lions Share, Swedish Erotica, Niva)

To download the content you need:
1. Download and install torrent client [for Windows] or for mobile system
2. Click on [Download]
Attention.
If the test YOU are NOT a ROBOT - does not work, then You are using an outdated browser.
Install the current browser and click on [Download]
Security: torrent client is allowed by Kaspersky.

[asmlocator.ru].t175483.torrent 
Torrent: Registered [ 2016-07-19 23:00 ] · 9F521912024F6082141BE2F17B62047B3DAE2DFF

Download .torrent

Download

20 KB

Status: checked
Completed: 0 times
Size: 495 MB
terms.php
[Profile] [PM]
Display posts:    
Reply to topic

Current time is: 22-Apr 15:09

All times are UTC ± 0



You cannot post new topics in this forum
You cannot reply to topics in this forum
You cannot edit your posts in this forum
You cannot delete your posts in this forum
You cannot vote in polls in this forum
You cannot attach files in this forum
You can download files in this forum