(Rock) [CD] Boston - Don\'t Look Back - 1978, FLAC (image+.cue), lossless

Reply to topic
DL-List and Torrent activity
Size:  269 MB   |    Registered:  2 years 9 months   |    Completed:  0 times

Seeder not seen: Never

 
   
 
 
Author Message

star21 ®

Gender: Female

Longevity: 3 years 5 months

Posts: 552375

Location: Екатеринбург

Post 19-Jul-2016 23:00

[Quote]

Boston / Don't Look Back
Жанр: Rock
Носитель: CD
Страна-производитель диска: Austria
Год издания: 1978
Издатель (лейбл): CBS/Epic
Страна: USA
Аудиокодек: FLAC (*.flac)
Тип рипа: image+.cue
Битрейт аудио: lossless
Продолжительность: 33:54
Источник (релизер): Me
Наличие сканов в содержимом раздачи: да
Треклист:
01. Don't Look Back
02. The Journey
03. It's Easy
04. A Man I'll Never Be
05. Feelin' Satisfied
06. Party
07. Used to Bad News
08. Don't Be Afraid

Лог создания рипа

Exact Audio Copy V1.0 beta 3 from 29. August 2011
EAC extraction logfile from 29. December 2013, 23:55
Boston / Don't Look Back
Used drive : ATAPI iHAS124 A Adapter: 2 ID: 1
Read mode : SecureUtilize accurate stream : YesDefeat audio cache : YesMake use of C2 pointers : No
Read offset correction : 6Overread into Lead-In and Lead-Out : NoFill up missing offset samples with silence : YesDelete leading and trailing silent blocks : NoNull samples used in CRC calculations : YesUsed interface : Native Win32 interface for Win NT & 2000
Used output format : Internal WAV RoutinesSample format : 44.100 Hz; 16 Bit; Stereo
TOC of the extracted CD
Track | Start | Length | Start sector | End sector --------------------------------------------------------- 1 | 0:00.00 | 6:00.25 | 0 | 27024 2 | 6:00.25 | 1:44.22 | 27025 | 34846 3 | 7:44.47 | 4:27.20 | 34847 | 54891 4 | 12:11.67 | 6:38.13 | 54892 | 84754 5 | 18:50.05 | 4:11.62 | 84755 | 103641 6 | 23:01.67 | 4:07.38 | 103642 | 122204 7 | 27:09.30 | 2:56.62 | 122205 | 135466 8 | 30:06.17 | 3:48.35 | 135467 | 152601
Range status and errors
Selected range
Filename C:\Boston - Don't Look Back (1978) (CDEPC 86057 - Austria)\Boston - Don't Look Back.wav
Peak level 96.1 % Extraction speed 5.0 X Range quality 100.0 % Test CRC E2A6D503 Copy CRC E2A6D503 Copy OK
No errors occurred
AccurateRip summary
Track 1 accurately ripped (confidence 11) [BC44ED2B] (AR v2)Track 2 accurately ripped (confidence 11) [0AEC5D87] (AR v2)Track 3 accurately ripped (confidence 11) [52ADAE36] (AR v2)Track 4 accurately ripped (confidence 11) [AD9677A4] (AR v2)Track 5 accurately ripped (confidence 11) [70BAC785] (AR v2)Track 6 accurately ripped (confidence 11) [1F80F974] (AR v2)Track 7 accurately ripped (confidence 11) [8F586E11] (AR v2)Track 8 accurately ripped (confidence 11) [DCD2A818] (AR v2)
All tracks accurately ripped
End of status report

To download the content you need:
1. Download and install torrent client [for Windows] or for mobile system
2. Click on [Download]
Attention.
If the test YOU are NOT a ROBOT - does not work, then You are using an outdated browser.
Install the current browser and click on [Download]
Security: torrent client is allowed by Kaspersky.

[asmlocator.ru].t175482.torrent 
Torrent: Registered [ 2016-07-19 23:00 ] · 71AD136EC8D01D01483D787E3B09B374763A98B5

Download .torrent

Download

12 KB

Status: checked
Completed: 0 times
Size: 269 MB
terms.php
[Profile] [PM]
Display posts:    
Reply to topic

Current time is: 23-Apr 07:17

All times are UTC ± 0



You cannot post new topics in this forum
You cannot reply to topics in this forum
You cannot edit your posts in this forum
You cannot delete your posts in this forum
You cannot vote in polls in this forum
You cannot attach files in this forum
You can download files in this forum