(Melodic Hard Rock) [CD] Europe - The Collection - 2009 (BSCD2 Sony Music Japan 2013), FLAC (image+.cue), lossless

Reply to topic
DL-List and Torrent activity
Size:  742 MB   |    Registered:  2 years 9 months   |    Completed:  0 times

Seeder not seen: Never

 
   
 
 
Author Message

star21 ®

Gender: Female

Longevity: 3 years 5 months

Posts: 552375

Location: Екатеринбург

Post 19-Jul-2016 23:00

[Quote]

Europe - The Collection
Жанр: Melodic Hard Rock
Страна-производитель диска: Japan
Год издания диска: 2013
Издатель (лейбл): Sony Music Japan
Номер по каталогу: SICP-30441
Страна: Sweden
Аудио кодек: FLAC (*.flac)
Тип рипа: image+.cue
Битрейт аудио: lossless
Продолжительность: 01:14:30
Источник (релизер): ALLexxess
Наличие сканов в содержимом раздачи: да
Треклист:
01. The Final Countdown 05:11
02. Prisoners In Paradise 05:38
03. Rock The Night 04:07
04. Seven Doors Hotel 05:17
05. Farewell 04:06
06. Memories 04:33
07. I'll Cry For You 05:22
08. In The Future To Come 05:01
09. Paradize Bay 03:53
10. Superstitious 04:35
11. Let The Good Times Rock 04:04
12. Cherokee 04:13
13. The King Will Return 05:35
14. Danger On The Track 03:47
15. Children Of This Time 04:56
16. Words Of Wisdom 04:05

Лог создания рипа

Exact Audio Copy V1.0 beta 3 from 29. August 2011
EAC extraction logfile from 22. January 2014, 22:53
Europe / The Collection BSCD2
Used drive : PLEXTOR BD-R PX-B950SA Adapter: 6 ID: 0
Read mode : SecureUtilize accurate stream : YesDefeat audio cache : YesMake use of C2 pointers : No
Read offset correction : 6Overread into Lead-In and Lead-Out : NoFill up missing offset samples with silence : YesDelete leading and trailing silent blocks : NoNull samples used in CRC calculations : YesUsed interface : Native Win32 interface for Win NT & 2000
Used output format : Internal WAV RoutinesSample format : 44.100 Hz; 16 Bit; Stereo
TOC of the extracted CD
Track | Start | Length | Start sector | End sector---------------------------------------------------------1 | 0:00.00 | 5:11.38 | 0 | 233622 | 5:11.38 | 5:38.09 | 23363 | 487213 | 10:49.47 | 4:07.39 | 48722 | 672854 | 14:57.11 | 5:17.05 | 67286 | 910655 | 20:14.16 | 4:06.14 | 91066 | 1095296 | 24:20.30 | 4:33.59 | 109530 | 1300637 | 28:54.14 | 5:22.71 | 130064 | 1542848 | 34:17.10 | 5:01.35 | 154285 | 1768949 | 39:18.45 | 3:53.49 | 176895 | 19441810 | 43:12.19 | 4:35.29 | 194419 | 21507211 | 47:47.48 | 4:04.72 | 215073 | 23344412 | 51:52.45 | 4:13.54 | 233445 | 25247313 | 56:06.24 | 5:35.20 | 252474 | 27761814 | 61:41.44 | 3:47.01 | 277619 | 29464415 | 65:28.45 | 4:56.17 | 294645 | 31686116 | 70:24.62 | 4:05.67 | 316862 | 335303
Range status and errors
Selected range
Filename C:\Users\Meijin\Desktop\Lossless Galaxy ALLexxess\Europe\2009 The Collection (BSCD2 Sony Music Japan 2013)\Europe - The Collection BSCD2.wav
Peak level 99.0 %Extraction speed 8.7 XRange quality 99.9 %Test CRC 716DA052Copy CRC 716DA052Copy OK
No errors occurred
AccurateRip summary
Track 1 cannot be verified as accurate (confidence 2) [BE91E2AF], AccurateRip returned [7B781CD8] (AR v2)Track 2 cannot be verified as accurate (confidence 2) [890A6410], AccurateRip returned [434864C1] (AR v2)Track 3 cannot be verified as accurate (confidence 2) [E1765C10], AccurateRip returned [9C328343] (AR v2)Track 4 cannot be verified as accurate (confidence 2) [4B1F264E], AccurateRip returned [082BB8CD] (AR v2)Track 5 cannot be verified as accurate (confidence 2) [EF35964D], AccurateRip returned [A70C4FBF] (AR v2)Track 6 cannot be verified as accurate (confidence 2) [770B6392], AccurateRip returned [79F10F5C] (AR v2)Track 7 cannot be verified as accurate (confidence 2) [0EB5432F], AccurateRip returned [A3753C84] (AR v2)Track 8 cannot be verified as accurate (confidence 2) [3D39AE48], AccurateRip returned [ED8B0095] (AR v2)Track 9 cannot be verified as accurate (confidence 2) [9AFF7208], AccurateRip returned [33983233] (AR v2)Track 10 cannot be verified as accurate (confidence 2) [F5E6E59B], AccurateRip returned [40B22F13] (AR v2)Track 11 cannot be verified as accurate (confidence 2) [0849BF55], AccurateRip returned [E696BB41] (AR v2)Track 12 cannot be verified as accurate (confidence 2) [C8299EE3], AccurateRip returned [E84F1856] (AR v2)Track 13 cannot be verified as accurate (confidence 2) [9CFAAD40], AccurateRip returned [8ECDD184] (AR v2)Track 14 cannot be verified as accurate (confidence 2) [4A495A89], AccurateRip returned [9BE27E09] (AR v2)Track 15 cannot be verified as accurate (confidence 2) [40B0FFE5], AccurateRip returned [C56A3837] (AR v2)Track 16 cannot be verified as accurate (confidence 2) [B4817EE9], AccurateRip returned [B6178EB2] (AR v2)
No tracks could be verified as accurateYou may have a different pressing from the one(s) in the database
End of status report
==== Log checksum 05FD4E02DED083B0DE39629E48153848FFF6EA874DAB8DFA5838E7C38A8A58AB ====

Содержание индексной карты (.CUE)

REM GENRE "Hard Rock"REM DATE 2013REM DISCID E6117610REM COMMENT "ExactAudioCopy v1.0b3"PERFORMER "Europe"TITLE "The Collection BSCD2"FILE "Europe - The Collection BSCD2.flac" WAVE  TRACK 01 AUDIO    TITLE "The Final Countdown"    PERFORMER "Europe"    INDEX 01 00:00:00  TRACK 02 AUDIO    TITLE "Prisoners In Paradise"    PERFORMER "Europe"    INDEX 00 05:09:55    INDEX 01 05:11:38  TRACK 03 AUDIO    TITLE "Rock The Night"    PERFORMER "Europe"    INDEX 00 10:47:64    INDEX 01 10:49:47  TRACK 04 AUDIO    TITLE "Seven Doors Hotel"    PERFORMER "Europe"    INDEX 00 14:55:28    INDEX 01 14:57:11  TRACK 05 AUDIO    TITLE "Farewelll"    PERFORMER "Europe"    INDEX 00 20:12:33    INDEX 01 20:14:16  TRACK 06 AUDIO    TITLE "Memories"    PERFORMER "Europe"    INDEX 00 24:18:47    INDEX 01 24:20:30  TRACK 07 AUDIO    TITLE "I'll Cry For You"    PERFORMER "Europe"    INDEX 00 28:52:31    INDEX 01 28:54:14  TRACK 08 AUDIO    TITLE "In The Future To Come"    PERFORMER "Europe"    INDEX 00 34:15:27    INDEX 01 34:17:10  TRACK 09 AUDIO    TITLE "Paradize Bay"    PERFORMER "Europe"    INDEX 00 39:16:62    INDEX 01 39:18:45  TRACK 10 AUDIO    TITLE "Superstitious"    PERFORMER "Europe"    INDEX 00 43:10:36    INDEX 01 43:12:19  TRACK 11 AUDIO    TITLE "Let The Good Times Rock"    PERFORMER "Europe"    INDEX 00 47:45:65    INDEX 01 47:47:48  TRACK 12 AUDIO    TITLE "Cherokee"    PERFORMER "Europe"    INDEX 00 51:50:62    INDEX 01 51:52:45  TRACK 13 AUDIO    TITLE "The King Will Return"    PERFORMER "Europe"    INDEX 00 56:04:41    INDEX 01 56:06:24  TRACK 14 AUDIO    TITLE "Danger On The Track"    PERFORMER "Europe"    INDEX 00 61:39:61    INDEX 01 61:41:44  TRACK 15 AUDIO    TITLE "Children Of This Time"    PERFORMER "Europe"    INDEX 00 65:26:62    INDEX 01 65:28:45  TRACK 16 AUDIO    TITLE "Words Of Wisdom"    PERFORMER "Europe"    INDEX 00 70:23:04    INDEX 01 70:24:62

Лог проверки качества

-----------------------
DON'T MODIFY THIS FILE
-----------------------
PERFORMER: auCDtect Task Manager, ver. 1.5.1RC3 build 1.5.1.4Copyright (c) 2008-2010 y-soft. All rights reservedhttp://y-soft.org
ANALYZER: auCDtect: CD records authenticity detector, version 0.8.2Copyright (c) 2004 Oleg Berngardt. All rights reserved.Copyright (c) 2004 Alexander Djourik. All rights reserved.
FILE: Europe - The Collection BSCD2.wavSize: 788635052 Hash: 9E80A39A42D941AF356A573B4393A0AC Accuracy: -m8Conclusion: CDDA 100%Signature: 6FDEC510DC8244E2BB0FA87128CFF17B353BE31CFILE: Europe - The Collection BSCD2.flacSize: 566759472 Hash: 9E80A39A42D941AF356A573B4393A0AC Accuracy: -m8Conclusion: CDDA 100%Signature: D63897C964C273F4AFB2AC860F6B4D4A9306F037

CUETools log

[CUETools log; Date: 24.01.2014 20:57:23; Version: 2.1.4][CTDB TOCID: aOCsciyfHFTZDFri6rldLCEwTUs-] found.Track | CTDB Status  1   | (8/8) Accurately ripped  2   | (8/8) Accurately ripped  3   | (8/8) Accurately ripped  4   | (8/8) Accurately ripped  5   | (8/8) Accurately ripped  6   | (8/8) Accurately ripped  7   | (8/8) Accurately ripped  8   | (8/8) Accurately ripped  9   | (8/8) Accurately ripped 10   | (8/8) Accurately ripped 11   | (8/8) Accurately ripped 12   | (8/8) Accurately ripped 13   | (8/8) Accurately ripped 14   | (8/8) Accurately ripped 15   | (8/8) Accurately ripped 16   | (8/8) Accurately ripped[AccurateRip ID: 002c925c-0212b7c6-e6117610] found.Track   [  CRC   |   V2   ] Status 01     [ebb02e86|be91e2af] (0+0/2) No match 02     [127c53ed|890a6410] (0+0/2) No match 03     [d20f56d9|e1765c10] (0+0/2) No match 04     [207501c2|4b1f264e] (0+0/2) No match 05     [38036cce|ef35964d] (0+0/2) No match 06     [3e8ffe06|770b6392] (0+0/2) No match 07     [ee637f4c|0eb5432f] (0+0/2) No match 08     [60294d5c|3d39ae48] (0+0/2) No match 09     [fd6b2391|9aff7208] (0+0/2) No match 10     [af4070be|f5e6e59b] (0+0/2) No match 11     [f2c1e1e8|0849bf55] (0+0/2) No match 12     [5fb46b78|c8299ee3] (0+0/2) No match 13     [ae7e9ac9|9cfaad40] (0+0/2) No match 14     [6c2e3c7a|4a495a89] (0+0/2) No match 15     [cc41ed7f|40b0ffe5] (0+0/2) No match 16     [2a2b3bfc|b4817ee9] (0+0/2) No matchOffsetted by -689: 01     [aaffd4e8] (0/2) No match (V2 was not tested) 02     [ccb84859] (0/2) No match (V2 was not tested) 03     [8bf87d32] (0/2) No match (V2 was not tested) 04     [deca05ff] (0/2) No match (V2 was not tested) 05     [f33232e4] (0/2) No match (V2 was not tested) 06     [41ce1355] (0/2) No match (V2 was not tested) 07     [85352b7f] (0/2) No match (V2 was not tested) 08     [0e95ff48] (0/2) No match (V2 was not tested) 09     [92cc2fab] (0/2) No match (V2 was not tested) 10     [f6a13533] (0/2) No match (V2 was not tested) 11     [d11b0dcf] (0/2) No match (V2 was not tested) 12     [81cbf00f] (0/2) No match (V2 was not tested) 13     [a26a4f48] (0/2) No match (V2 was not tested) 14     [baec9b19] (0/2) No match (V2 was not tested) 15     [4ce46e2c] (0/2) No match (V2 was not tested) 16     [2fe97b41] (0/2) No match (V2 was not tested)Offsetted by 36: 01     [aab8f9e6] (0/2) No match (V2 was not tested) 02     [7a13d261] (0/2) No match (V2 was not tested) 03     [721c257a] (0/2) No match (V2 was not tested) 04     [8c67161c] (0/2) No match (V2 was not tested) 05     [828db6f0] (0/2) No match (V2 was not tested) 06     [54545184] (0/2) No match (V2 was not tested) 07     [dec852dc] (0/2) No match (V2 was not tested) 08     [4e65cb79] (0/2) No match (V2 was not tested) 09     [c9656265] (0/2) No match (V2 was not tested) 10     [8765ae03] (0/2) No match (V2 was not tested) 11     [feb42c15] (0/2) No match (V2 was not tested) 12     [ce0b10b0] (0/2) No match (V2 was not tested) 13     [f1aa4cc6] (0/2) No match (V2 was not tested) 14     [f6c05fba] (0/2) No match (V2 was not tested) 15     [7b30acd8] (0/2) No match (V2 was not tested) 16     [f8454be7] (0/2) No match (V2 was not tested)
Track Peak [ CRC32 ] [W/O NULL] [ LOG ] -- 99,0 [716DA052] [DFAECBE3] CRC32 01 89,1 [132381D3] [5594C4CD] 02 98,6 [836E254A] [8F6C3D6E] 03 98,6 [031CD0B6] [6874B59B] 04 78,0 [AD7E2B55] [7DF58F27] 05 88,3 [F67EF30B] [2A5840F9] 06 98,8 [DD48DE60] [69CCFB26] 07 87,8 [54B6DB1F] [3787FBA0] 08 85,5 [90EFF499] [97CD5AC9] 09 98,9 [77D3995F] [562F107B] 10 96,1 [214CBD13] [CCCBA5DB] 11 98,8 [6DC9A27A] [0354DE5F] 12 98,6 [CB6B85A9] [D4FCE288] 13 99,0 [F3EC7E49] [5CB07D7F] 14 88,0 [411A9013] [1F16347E] 15 99,0 [5093F0DE] [BA74065A] 16 98,9 [B8E4ED81] [79B00BAB]

Доп. информация

Epic Records / Legacy Recordings / Sony Music Japan
Jewel Case / Blu-spec CD2
Catalog CD: SICP-30441
Made in Japan
Dynamic Range: 8
Released Year: 2013

Back, Disc, Matrix, Spectrogram


To download the content you need:
1. Download and install torrent client [for Windows] or for mobile system
2. Click on [Download]
Attention.
If the test YOU are NOT a ROBOT - does not work, then You are using an outdated browser.
Install the current browser and click on [Download]
Security: torrent client is allowed by Kaspersky.

[asmlocator.ru].t175481.torrent 
Torrent: Registered [ 2016-07-19 23:00 ] · C4FAC540E1E95D5D2102DFC466AE169D6F863A10

Download .torrent

Download

18 KB

Status: checked
Completed: 0 times
Size: 742 MB
terms.php
[Profile] [PM]
Display posts:    
Reply to topic

Current time is: 23-Apr 07:18

All times are UTC ± 0



You cannot post new topics in this forum
You cannot reply to topics in this forum
You cannot edit your posts in this forum
You cannot delete your posts in this forum
You cannot vote in polls in this forum
You cannot attach files in this forum
You can download files in this forum