(Hard Rock, AOR) [CD] (RTZ) Return To Zero (ex.Boston) - Lost - 1998, FLAC (image+.cue), lossless

Reply to topic
DL-List and Torrent activity
Size:  360 MB   |    Registered:  3 years   |    Completed:  0 times

Seeder not seen: 1 year 6 months

 
   
 
 
Author Message

star21 ®

Gender: Female

Longevity: 3 years 8 months

Posts: 552033

Location: Екатеринбург

Post 19-Jul-2016 22:15

[Quote]

(RTZ) Return To Zero (ex.Boston) - Lost- Жанр: Hard Rock/AOR
Носитель: CD
Год издания: 1998
Страна: US
Аудиокодек: FLAC (*.flac)
Тип рипа: image+.cue
Битрейт аудио: lossless
Продолжительность: 00:48:00
Источник (релизер): [hardstuff.ws] RD (спасибо)
Наличие сканов в содержимом раздачи: да
Треклист:
01. When You Love Someone 4:34 Listen!
02. Turn This Love Around 4:16 Listen!
03. Someday 4:19 Listen!
04. Violent Days 4:07 Listen!
05. Change for Change 3:59 Listen!
06. One In a Million 4:24 Listen!
07. Given You Up for Dead 4:46 Listen!
08. Don't Wait 4:40 Listen!
09. Talk To Me 4:23 Listen!
10. Don't Lead Me On 4:04 Listen!-

Лог создания рипа

Exact Audio Copy V1.0 beta 3 from 29. August 2011
EAC extraction logfile from 24. January 2014, 22:35
RTZ / Lost (199663)
Used drive : MATSHITABD-CMB UJ242AS Adapter: 0 ID: 1
Read mode : SecureUtilize accurate stream : YesDefeat audio cache : YesMake use of C2 pointers : No
Read offset correction : 103Overread into Lead-In and Lead-Out : NoFill up missing offset samples with silence : YesDelete leading and trailing silent blocks : NoNull samples used in CRC calculations : YesUsed interface : Installed external ASPI interface
Used output format : User Defined EncoderSelected bitrate : 1024 kBit/sQuality : HighAdd ID3 tag : YesCommand line compressor : C:\Program Files (x86)\Exact Audio Copy\Flac\flac.exeAdditional command line options : -V -8 -T "Date=%year%" -T "Genre=%genre%" %source%
TOC of the extracted CD
Track | Start | Length | Start sector | End sector --------------------------------------------------------- 1 | 0:00.01 | 4:33.70 | 1 | 20545 2 | 4:33.71 | 4:15.62 | 20546 | 39732 3 | 8:49.58 | 4:19.19 | 39733 | 59176 4 | 13:09.02 | 4:03.45 | 59177 | 77446 5 | 17:12.47 | 4:02.09 | 77447 | 95605 6 | 21:14.56 | 4:23.63 | 95606 | 115393 7 | 25:38.44 | 4:46.29 | 115394 | 136872 8 | 30:24.73 | 4:39.54 | 136873 | 157851 9 | 35:04.52 | 4:22.31 | 157852 | 177532 10 | 39:27.08 | 4:04.59 | 177533 | 195891 11 | 43:31.67 | 4:28.09 | 195892 | 216000
Range status and errors
Selected range
Filename C:\EACrip\RTZ - Lost (199663).wav
Peak level 99.9 % Extraction speed 3.5 X Range quality 99.9 % Test CRC 8C55AFCA Copy CRC 8C55AFCA Copy OK
No errors occurred
AccurateRip summary
Track 1 not present in databaseTrack 2 not present in databaseTrack 3 not present in databaseTrack 4 not present in databaseTrack 5 not present in databaseTrack 6 not present in databaseTrack 7 not present in databaseTrack 8 not present in databaseTrack 9 not present in databaseTrack 10 not present in databaseTrack 11 not present in database
None of the tracks are present in the AccurateRip database
End of status report
==== Log checksum CE8C8C8BF8DF9F0F9835C7513E76582E7D2530165C46C2CC23919A68D8FE5603 ====

Состав

Brad Delp vocals
Barry Goudreau guitars
Brian Maes keyboards
Dave Stefanelli drums
Tim Archibald bass
-

To download the content you need:
1. Download and install torrent client [for Windows] or for mobile system
2. Click on [Download]
Attention.
If the test YOU are NOT a ROBOT - does not work, then You are using an outdated browser.
Install the current browser and click on [Download]
Security: torrent client is allowed by Kaspersky.

[asmlocator.ru].t175480.torrent 
Torrent: Registered [ 2016-07-19 22:15 ] · D6C39C10EEE793DDFCF8F288CCDB153E998D20B6

Download .torrent

Download

15 KB

Status: checked
Completed: 0 times
Size: 360 MB
terms.php
[Profile] [PM]
Display posts:    
Reply to topic

Current time is: 23-Jul 16:48

All times are UTC ± 0



You cannot post new topics in this forum
You cannot reply to topics in this forum
You cannot edit your posts in this forum
You cannot delete your posts in this forum
You cannot vote in polls in this forum
You cannot attach files in this forum
You can download files in this forum