(Westcoast/AOR) Say - Fool Child - 1994, FLAC (image+.cue), lossless

Reply to topic
DL-List and Torrent activity
Size:  474 MB   |    Registered:  2 years 9 months   |    Completed:  0 times

Seeder not seen: Never

 
   
 
 
Author Message

star21 ®

Gender: Female

Longevity: 3 years 5 months

Posts: 552375

Location: Екатеринбург

Post 19-Jul-2016 22:15

[Quote]

Say / Fool Child (1994)
Жанр: Westcoast/AOR
Страна-производитель диска: United Kingdom
Год издания: 1994
Издатель (лейбл): самиздат
Номер по каталогу: SAY152
Страна: United Kingdom
Аудиокодек: FLAC (*.flac)
Тип рипа: image+.cue
Битрейт аудио: lossless
Продолжительность: 62:32
Источник (релизер): собственный рип
Наличие сканов в содержимом раздачи: да
Треклист:
1. Fool Child - 3:48
2. Through The Pane (Part One) - 0:41
3. Born Yesterday - 5:28
4. Take A Bite - 5:43
5. Skin On Skin - 4:10
6. Light My Fire (The Doors cover) - 3:36
7. Carousel - 4:34
8. For You And I - 6:42
9. Joy To Pain - 4:16
10. Miracle - 4:44
11. Through The Pane (Part Two) - 6:14
12. Hundreds Of Miles - 6:17
13. Free - 6:13

Лог создания рипа

Exact Audio Copy V1.0 beta 3 from 29. August 2011
EAC extraction logfile from 25. January 2014, 21:54
Say / Fool Child
Used drive : SlimtypeDVD A DS8A5SH Adapter: 0 ID: 1
Read mode : SecureUtilize accurate stream : YesDefeat audio cache : YesMake use of C2 pointers : No
Read offset correction : 6Overread into Lead-In and Lead-Out : NoFill up missing offset samples with silence : YesDelete leading and trailing silent blocks : NoNull samples used in CRC calculations : YesUsed interface : Native Win32 interface for Win NT & 2000
Used output format : User Defined EncoderSelected bitrate : 320 kBit/sQuality : HighAdd ID3 tag : NoCommand line compressor : C:\Program Files (x86)\Exact Audio Copy\Flac\flac.exeAdditional command line options : -V -8 -T "Date=%year%" -T "Genre=%genre%" %source%
TOC of the extracted CD
Track | Start | Length | Start sector | End sector --------------------------------------------------------- 1 | 0:00.00 | 3:48.37 | 0 | 17136 2 | 3:48.37 | 0:41.03 | 17137 | 20214 3 | 4:29.40 | 5:28.60 | 20215 | 44874 4 | 9:58.25 | 5:43.12 | 44875 | 70611 5 | 15:41.37 | 4:10.63 | 70612 | 89424 6 | 19:52.25 | 3:36.67 | 89425 | 105691 7 | 23:29.17 | 4:34.20 | 105692 | 126261 8 | 28:03.37 | 6:42.63 | 126262 | 156474 9 | 34:46.25 | 4:16.20 | 156475 | 175694 10 | 39:02.45 | 4:44.02 | 175695 | 196996 11 | 43:46.47 | 6:14.48 | 196997 | 225094 12 | 50:01.20 | 6:17.62 | 225095 | 253431 13 | 56:19.07 | 6:13.18 | 253432 | 281424
Range status and errors
Selected range
Filename D:\My Music\Say - 1994 Fool Child\Say - Fool Child.wav
Peak level 100.0 % Extraction speed 1.9 X Range quality 100.0 % Test CRC 87DE96F8 Copy CRC 87DE96F8 Copy OK
No errors occurred
AccurateRip summary
Track 1 not present in databaseTrack 2 not present in databaseTrack 3 not present in databaseTrack 4 not present in databaseTrack 5 not present in databaseTrack 6 not present in databaseTrack 7 not present in databaseTrack 8 not present in databaseTrack 9 not present in databaseTrack 10 not present in databaseTrack 11 not present in databaseTrack 12 not present in databaseTrack 13 not present in database
None of the tracks are present in the AccurateRip database
End of status report
==== Log checksum A8F507C8749452BB89DDEBAFB6D1646C707E74A9648A5F9509FDFE95E86147D7 ====

Состав группы

Andy Shaw - vocals, Stu Ellis - guitar, vocals, Pete Ellis - bass
Chris Lloyd - keyboards, vocals, Denis Curry - drums
Say - Heart Still Beats - 1992, APE (image+.cue), lossless

To download the content you need:
1. Download and install torrent client [for Windows] or for mobile system
2. Click on [Download]
Attention.
If the test YOU are NOT a ROBOT - does not work, then You are using an outdated browser.
Install the current browser and click on [Download]
Security: torrent client is allowed by Kaspersky.

[asmlocator.ru].t175479.torrent 
Torrent: Registered [ 2016-07-19 22:15 ] · FFF7092332C380BE95049E58C71BBCD732DE483F

Download .torrent

Download

19 KB

Status: checked
Completed: 0 times
Size: 474 MB
terms.php
[Profile] [PM]
Display posts:    
Reply to topic

Current time is: 23-Apr 07:19

All times are UTC ± 0



You cannot post new topics in this forum
You cannot reply to topics in this forum
You cannot edit your posts in this forum
You cannot delete your posts in this forum
You cannot vote in polls in this forum
You cannot attach files in this forum
You can download files in this forum