(Melodic Hard Rock) [CD] Place Vendome - Thunder In The Distance - 2013, FLAC (image+.cue), lossless

Reply to topic
DL-List and Torrent activity
Size:  468 MB   |    Registered:  2 years 9 months   |    Completed:  0 times

Seeder not seen: Never

 
   
 
 
Author Message

star21 ®

Gender: Female

Longevity: 3 years 5 months

Posts: 552392

Location: Екатеринбург

Post 19-Jul-2016 22:15

[Quote]

PLACE VENDOME
- Thunder In The Distance - Жанр: Melodic Hard Rock Год издания: 2013 Страна: Germany
Издатель (лейбл): Frontiers Records Номер по каталогу: FR CD 624
Аудиокодек: FLAC (*.flac) Тип рипа: image+.cue Битрейт аудио: lossless
Продолжительность: 00:53:57 Источник (релизер): Собственный Диск
Наличие сканов в содержимом раздачи: Да (Complete 600 DPI)

Состав

Michael Kiske (Michael Kiske, Kiske / Somerville, Place Vendome, Unisonic, Helloween (1987-1993), SupaRed, R.T.S., Revolution Renaissance (2008)) – vocals
Uwe Reitenauer (Pink Cream 69 (2007,2009,2013), David Readman (2007), Place Vendome, Bob Catley (2008), Sunstorm (2005,2009,2012)) – guitars
Dennis Ward (Pink Cream 69, D.C. Cooper (1999), Missa Mercuria (2002), Place Vendome, Khymera (2005,2008), Sunstorm (2006,2009,2012), Bassinvaders (2008), Bob Catley (2008), Unisonic, Beverly Killz (2012)) – bass guitar, producer
Dirk Bruinenberg (Vulture (1990,1993), Elegy, Consortium Project (1999,2001), Adagio (2001,2003), Patrick Rondat (2004), Place Vendome (2013)) – drums
Gunther Werno (Vanden Plas, Place Vendome, Missa Mercuria (2002), D.C. Cooper (1999) - keyboards

Треклист

01. "Talk to Me" (Alessandro Del Vecchio) - 4:03
02. "Power of Music" (Alessandro Del Vecchio) - 4:03
03. "Broken Wings" (Brett Jones) - 4:20
04. "Lost in Paradise" (Timo Tolkki) - 3:53
05. "It Can' Rain Forever" (Soren Kronqvist, Camilla Andersson, Thomas Vikstrom) - 4:05
06. "Fragile Ground" (Brett Jones) - 4:10
07. "Hold Your Love" (Alessandro Del Vecchio) 4:35
08. "Never Too Late" (Alessandro Del Vecchio) - 3:30
09. "Heaven Lost" (Alessandro Del Vecchio, Carmine Martone) - 4:40
10. "My Heart Is Dying" (Tommy Denander, Nina Soderqvis) - 3:07
11. "Break Out" (Magnus Karlsson) - 4:34
12. "Maybe Tomorrow" (Andrea Cantarelli & Roberto Tiranti) - 4:24
13. "Thunder in the Distance" (Alessandro Del Vecchio) - 4:28

Лог создания рипа

Exact Audio Copy V1.0 beta 3 from 29. August 2011
EAC extraction logfile from 11. November 2013, 19:49
Place Vendome / Thunder In The Distance
Used drive : ATAPI iHAP122 9 Adapter: 3 ID: 0
Read mode : SecureUtilize accurate stream : YesDefeat audio cache : YesMake use of C2 pointers : No
Read offset correction : 6Overread into Lead-In and Lead-Out : NoFill up missing offset samples with silence : YesDelete leading and trailing silent blocks : NoNull samples used in CRC calculations : YesUsed interface : Installed external ASPI interface
Used output format : User Defined EncoderSelected bitrate : 1024 kBit/sQuality : HighAdd ID3 tag : NoCommand line compressor : C:\Program Files\FLAC\flac.exeAdditional command line options : -V -8 -T "Date=%year%" -T "Genre=%genre%" -T"COMMENT=Ripped by Ilijan" -8 -V %source%
TOC of the extracted CD
Track | Start | Length | Start sector | End sector --------------------------------------------------------- 1 | 0:00.00 | 4:03.39 | 0 | 18263 2 | 4:03.39 | 4:03.43 | 18264 | 36531 3 | 8:07.07 | 4:20.25 | 36532 | 56056 4 | 12:27.32 | 3:53.42 | 56057 | 73573 5 | 16:20.74 | 4:05.14 | 73574 | 91962 6 | 20:26.13 | 4:10.33 | 91963 | 110745 7 | 24:36.46 | 4:35.14 | 110746 | 131384 8 | 29:11.60 | 3:30.33 | 131385 | 147167 9 | 32:42.18 | 4:40.68 | 147168 | 168235 10 | 37:23.11 | 3:07.29 | 168236 | 182289 11 | 40:30.40 | 4:34.70 | 182290 | 202909 12 | 45:05.35 | 4:24.53 | 202910 | 222762 13 | 49:30.13 | 4:26.65 | 222763 | 242777
Range status and errors
Selected range
Filename D:\Ilijan\Place Vendome - Thunder In The Distance.wav
Peak level 98.2 % Extraction speed 5.8 X Range quality 100.0 % Test CRC 41A63E8D Copy CRC 41A63E8D Copy OK
No errors occurred
AccurateRip summary
Track 1 accurately ripped (confidence 1) [210FDA5F] (AR v2)Track 2 accurately ripped (confidence 1) [47A7599C] (AR v2)Track 3 accurately ripped (confidence 1) [9D6C4D46] (AR v2)Track 4 accurately ripped (confidence 1) [D969478B] (AR v2)Track 5 accurately ripped (confidence 1) [2405B6CF] (AR v2)Track 6 accurately ripped (confidence 1) [45A25658] (AR v2)Track 7 accurately ripped (confidence 1) [043F4184] (AR v2)Track 8 accurately ripped (confidence 1) [F8180881] (AR v2)Track 9 accurately ripped (confidence 1) [CCC3EBC3] (AR v2)Track 10 accurately ripped (confidence 1) [FC4765BB] (AR v2)Track 11 accurately ripped (confidence 1) [A4D65674] (AR v2)Track 12 accurately ripped (confidence 1) [1F54BA79] (AR v2)Track 13 accurately ripped (confidence 1) [70E34B44] (AR v2)
All tracks accurately ripped
End of status report
---- CUETools DB Plugin V2.1.3
[CTDB TOCID: D2s_CTONguyu859H.A9PfwXBKUs-] found, Submit result: D2s_CTONguyu859H.A9PfwXBKUs- has been confirmed[ed87954a] (2/2) Accurately ripped
==== Log checksum 46E83D8413323F719199991148DF7454F51FE3BA36C2CE62F8ED216621381709 ====

To download the content you need:
1. Download and install torrent client [for Windows] or for mobile system
2. Click on [Download]
Attention.
If the test YOU are NOT a ROBOT - does not work, then You are using an outdated browser.
Install the current browser and click on [Download]
Security: torrent client is allowed by Kaspersky.

[asmlocator.ru].t175478.torrent 
Torrent: Registered [ 2016-07-19 22:15 ] · B4B3EB6E47F8D423E1BE132A08EB5E38A5D3C2EB

Download .torrent

Download

20 KB

Status: checked
Completed: 0 times
Size: 468 MB
terms.php
[Profile] [PM]
Display posts:    
Reply to topic

Current time is: 22-Apr 15:04

All times are UTC ± 0



You cannot post new topics in this forum
You cannot reply to topics in this forum
You cannot edit your posts in this forum
You cannot delete your posts in this forum
You cannot vote in polls in this forum
You cannot attach files in this forum
You can download files in this forum