(AOR/Melodic Rock) [CD] Jaime Kyle - The Best Of My Heart - 1999, FLAC (tracks+.cue), lossless

Reply to topic
DL-List and Torrent activity
Size:  448 MB   |    Registered:  3 years   |    Completed:  0 times

Seeder not seen: Never

 
   
 
 
Author Message

star21 ®

Gender: Female

Longevity: 3 years 8 months

Posts: 552034

Location: Екатеринбург

Post 19-Jul-2016 22:15

[Quote]

Jaime Kyle / The Best Of My Heart
Жанр: AOR/Melodic Rock
Носитель: CD
Страна-производитель диска: Italy
Год издания: 1999
Издатель (лейбл): Frontiers Records
Номер по каталогу: FR CD 033
Страна: USA
Аудиокодек: FLAC (*.flac)
Тип рипа: tracks+.cue
Битрейт аудио: lossless
Продолжительность: 00:56:19
Источник (релизер): The Fly
Наличие сканов в содержимом раздачи: да
Треклист:
01. The Best Of My Heart
02. Bombs Away
03. Stranded
04. Bad News
05. Back From Hollywood
06. Understanding
07. When Angels Cry
08. More Than Meets The Eye
09. Everything But Love
10. Bed Of Roses
11. Let It Go
12. How Do I Stop The Tears
13. Movin' On Down The Road
14. Crossing Over
15. If Not For You

Лог создания рипа

Exact Audio Copy V1.0 beta 3 from 29. August 2011
EAC extraction logfile from 22. January 2014, 13:38
Jaime Kyle / The Best Of My Heart
Used drive : PLEXTOR DVDR PX-L890SA Adapter: 3 ID: 0
Read mode : SecureUtilize accurate stream : YesDefeat audio cache : YesMake use of C2 pointers : No
Read offset correction : 6Overread into Lead-In and Lead-Out : NoFill up missing offset samples with silence : YesDelete leading and trailing silent blocks : NoNull samples used in CRC calculations : YesUsed interface : Native Win32 interface for Win NT & 2000Gap handling : Appended to previous track
Used output format : User Defined EncoderSelected bitrate : 1024 kBit/sQuality : HighAdd ID3 tag : NoCommand line compressor : C:\Program Files\FLAC\flac.exeAdditional command line options : -0 -V -T "ARTIST=%artist%" -T "TITLE=%title%" -T "ALBUM=%albumtitle%" -T "DATE=%year%" -T "TRACKNUMBER=%tracknr%" -T "TOTALTRACKS=%numtracks%" -T "GENRE=%genre%" -T "COMMENT=Naftamusic Release!" %source%
TOC of the extracted CD
Track | Start | Length | Start sector | End sector --------------------------------------------------------- 1 | 0:00.00 | 3:29.10 | 0 | 15684 2 | 3:29.10 | 2:45.60 | 15685 | 28119 3 | 6:14.70 | 3:44.05 | 28120 | 44924 4 | 9:59.00 | 3:51.30 | 44925 | 62279 5 | 13:50.30 | 3:39.05 | 62280 | 78709 6 | 17:29.35 | 4:11.30 | 78710 | 97564 7 | 21:40.65 | 4:06.05 | 97565 | 116019 8 | 25:46.70 | 3:52.57 | 116020 | 133476 9 | 29:39.52 | 4:03.15 | 133477 | 151716 10 | 33:42.67 | 3:11.30 | 151717 | 166071 11 | 36:54.22 | 4:08.48 | 166072 | 184719 12 | 41:02.70 | 3:51.67 | 184720 | 202111 13 | 44:54.62 | 3:12.50 | 202112 | 216561 14 | 48:07.37 | 3:37.15 | 216562 | 232851 15 | 51:44.52 | 4:35.13 | 232852 | 253489
Track 1
Filename E:\Nafta Releases\Jaime Kyle - The Best Of My Heart (1999)[FLAC]-Naftamusic\01 - The Best Of My Heart.wav
Pre-gap length 0:00:02.00
Peak level 96.6 % Extraction speed 2.7 X Track quality 99.9 % Test CRC E0900379 Copy CRC E0900379 Accurately ripped (confidence 2) [E19F1F1C] (AR v2) Copy OK
Track 2
Filename E:\Nafta Releases\Jaime Kyle - The Best Of My Heart (1999)[FLAC]-Naftamusic\02 - Bombs Away.wav
Peak level 96.2 % Extraction speed 3.5 X Track quality 100.0 % Test CRC 48C8A3E2 Copy CRC 48C8A3E2 Accurately ripped (confidence 2) [3B29B378] (AR v2) Copy OK
Track 3
Filename E:\Nafta Releases\Jaime Kyle - The Best Of My Heart (1999)[FLAC]-Naftamusic\03 - Stranded.wav
Peak level 98.1 % Extraction speed 3.2 X Track quality 99.9 % Test CRC DBCCBEC0 Copy CRC DBCCBEC0 Accurately ripped (confidence 2) [FC3E79FF] (AR v2) Copy OK
Track 4
Filename E:\Nafta Releases\Jaime Kyle - The Best Of My Heart (1999)[FLAC]-Naftamusic\04 - Bad News.wav
Peak level 93.6 % Extraction speed 3.4 X Track quality 99.9 % Test CRC F0CD21F0 Copy CRC F0CD21F0 Accurately ripped (confidence 2) [6E450CDB] (AR v2) Copy OK
Track 5
Filename E:\Nafta Releases\Jaime Kyle - The Best Of My Heart (1999)[FLAC]-Naftamusic\05 - Back From Hollywood.wav
Peak level 98.8 % Extraction speed 4.6 X Track quality 100.0 % Test CRC 084B1542 Copy CRC 084B1542 Accurately ripped (confidence 2) [260BB990] (AR v2) Copy OK
Track 6
Filename E:\Nafta Releases\Jaime Kyle - The Best Of My Heart (1999)[FLAC]-Naftamusic\06 - Understanding.wav
Peak level 87.8 % Extraction speed 4.9 X Track quality 100.0 % Test CRC 053BC8F6 Copy CRC 053BC8F6 Accurately ripped (confidence 2) [25A2F1DE] (AR v2) Copy OK
Track 7
Filename E:\Nafta Releases\Jaime Kyle - The Best Of My Heart (1999)[FLAC]-Naftamusic\07 - When Angels Cry.wav
Peak level 95.3 % Extraction speed 5.2 X Track quality 100.0 % Test CRC 4C95DCFB Copy CRC 4C95DCFB Accurately ripped (confidence 2) [8645B0F0] (AR v2) Copy OK
Track 8
Filename E:\Nafta Releases\Jaime Kyle - The Best Of My Heart (1999)[FLAC]-Naftamusic\08 - More Than Meets The Eye.wav
Peak level 86.6 % Extraction speed 4.3 X Track quality 99.9 % Test CRC 5C0122AD Copy CRC 5C0122AD Accurately ripped (confidence 2) [D336BAB6] (AR v2) Copy OK
Track 9
Filename E:\Nafta Releases\Jaime Kyle - The Best Of My Heart (1999)[FLAC]-Naftamusic\09 - Everything But Love.wav
Peak level 86.4 % Extraction speed 5.7 X Track quality 100.0 % Test CRC 3D7D8C89 Copy CRC 3D7D8C89 Accurately ripped (confidence 2) [4B6602F0] (AR v2) Copy OK
Track 10
Filename E:\Nafta Releases\Jaime Kyle - The Best Of My Heart (1999)[FLAC]-Naftamusic\10 - Bed Of Roses.wav
Peak level 91.2 % Extraction speed 5.7 X Track quality 100.0 % Test CRC BABFB4BD Copy CRC BABFB4BD Accurately ripped (confidence 2) [C3E9FB34] (AR v2) Copy OK
Track 11
Filename E:\Nafta Releases\Jaime Kyle - The Best Of My Heart (1999)[FLAC]-Naftamusic\11 - Let It Go.wav
Peak level 92.6 % Extraction speed 4.9 X Track quality 99.9 % Test CRC B8A6D56F Copy CRC B8A6D56F Accurately ripped (confidence 2) [DA839C38] (AR v2) Copy OK
Track 12
Filename E:\Nafta Releases\Jaime Kyle - The Best Of My Heart (1999)[FLAC]-Naftamusic\12 - How Do I Stop The Tears.wav
Peak level 98.5 % Extraction speed 6.3 X Track quality 100.0 % Test CRC 88516FD3 Copy CRC 88516FD3 Accurately ripped (confidence 2) [4EB18DBD] (AR v2) Copy OK
Track 13
Filename E:\Nafta Releases\Jaime Kyle - The Best Of My Heart (1999)[FLAC]-Naftamusic\13 - Movin' On Down The Road.wav
Peak level 92.7 % Extraction speed 6.3 X Track quality 100.0 % Test CRC 16A44756 Copy CRC 16A44756 Accurately ripped (confidence 2) [73F379B6] (AR v2) Copy OK
Track 14
Filename E:\Nafta Releases\Jaime Kyle - The Best Of My Heart (1999)[FLAC]-Naftamusic\14 - Crossing Over.wav
Peak level 95.6 % Extraction speed 6.6 X Track quality 100.0 % Test CRC AA86ECEA Copy CRC AA86ECEA Accurately ripped (confidence 2) [8E63111F] (AR v2) Copy OK
Track 15
Filename E:\Nafta Releases\Jaime Kyle - The Best Of My Heart (1999)[FLAC]-Naftamusic\15 - If Not For You.wav
Peak level 77.0 % Extraction speed 7.0 X Track quality 100.0 % Test CRC 42867C88 Copy CRC 42867C88 Accurately ripped (confidence 2) [06EEC173] (AR v2) Copy OK
All tracks accurately ripped
No errors occurred
End of status report
==== Log checksum 270F5DE2D2C6DE579F40C2DFCC203EACFA46743ECCA14656B35D0ABF9D5A6C6A ====

Содержание индексной карты (.CUE)

REM GENRE "Melodic Hard Rock"REM DATE 1999REM DISCID B90D330FREM COMMENT "ExactAudioCopy v1.0b3"PERFOMER "Jaime Kyle"TITLE "The Best Of My Heart"FILE "01 - The Best Of My Heart.wav" WAVE  TRACK 01 AUDIO    TITLE "The Best Of My Heart"    PERFOMER "Jaime Kyle"    INDEX 01 00:00:00FILE "02 - Bombs Away.wav" WAVE  TRACK 02 AUDIO    TITLE "Bombs Away"    PERFOMER "Jaime Kyle"    INDEX 01 00:00:00FILE "03 - Stranded.wav" WAVE  TRACK 03 AUDIO    TITLE "Stranded"    PERFOMER "Jaime Kyle"    INDEX 01 00:00:00FILE "04 - Bad News.wav" WAVE  TRACK 04 AUDIO    TITLE "Bad News"    PERFOMER "Jaime Kyle"    INDEX 01 00:00:00FILE "05 - Back From Hollywood.wav" WAVE  TRACK 05 AUDIO    TITLE "Back From Hollywood"    PERFOMER "Jaime Kyle"    INDEX 01 00:00:00FILE "06 - Understanding.wav" WAVE  TRACK 06 AUDIO    TITLE "Understanding"    PERFOMER "Jaime Kyle"    INDEX 01 00:00:00FILE "07 - When Angels Cry.wav" WAVE  TRACK 07 AUDIO    TITLE "When Angels Cry"    PERFOMER "Jaime Kyle"    INDEX 01 00:00:00FILE "08 - More Than Meets The Eye.wav" WAVE  TRACK 08 AUDIO    TITLE "More Than Meets The Eye"    PERFOMER "Jaime Kyle"    INDEX 01 00:00:00FILE "09 - Everything But Love.wav" WAVE  TRACK 09 AUDIO    TITLE "Everything But Love"    PERFOMER "Jaime Kyle"    INDEX 01 00:00:00FILE "10 - Bed Of Roses.wav" WAVE  TRACK 10 AUDIO    TITLE "Bed Of Roses"    PERFOMER "Jaime Kyle"    INDEX 01 00:00:00FILE "11 - Let It Go.wav" WAVE  TRACK 11 AUDIO    TITLE "Let It Go"    PERFOMER "Jaime Kyle"    INDEX 01 00:00:00FILE "12 - How Do I Stop The Tears.wav" WAVE  TRACK 12 AUDIO    TITLE "How Do I Stop The Tears"    PERFOMER "Jaime Kyle"    INDEX 01 00:00:00FILE "13 - Movin' On Down The Road.wav" WAVE  TRACK 13 AUDIO    TITLE "Movin' On Down The Road"    PERFOMER "Jaime Kyle"    INDEX 01 00:00:00FILE "14 - Crossing Over.wav" WAVE  TRACK 14 AUDIO    TITLE "Crossing Over"    PERFOMER "Jaime Kyle"    INDEX 01 00:00:00FILE "15 - If Not For You.wav" WAVE  TRACK 15 AUDIO    TITLE "If Not For You"    PERFOMER "Jaime Kyle"    INDEX 01 00:00:00

Лог проверки качества

AUDIOCHECKER v2.0 beta (build 457) - by Dester - opdester@freemail.hu~~~~~~~~~~~~~~~~~~~~~~~~~~~~~~~~~~-=== НЕ РЕДАКТИРУЙТЕ ЭТОТ ФАЙЛ! ===-
Путь: ...\Jaime Kyle - The Best Of My Heart (1999)
01 -=- 01 - The Best Of My Heart.flac -=- CDDA (99%)02 -=- 02 - Bombs Away.flac -=- CDDA (100%)03 -=- 03 - Stranded.flac -=- CDDA (100%)04 -=- 04 - Bad News.flac -=- CDDA (100%)05 -=- 05 - Back From Hollywood.flac -=- CDDA (99%)06 -=- 06 - Understanding.flac -=- CDDA (100%)07 -=- 07 - When Angels Cry.flac -=- CDDA (100%)08 -=- 08 - More Than Meets The Eye.flac -=- CDDA (99%)09 -=- 09 - Everything But Love.flac -=- CDDA (100%)10 -=- 10 - Bed Of Roses.flac -=- CDDA (100%)11 -=- 11 - Let It Go.flac -=- CDDA (100%)12 -=- 12 - How Do I Stop The Tears.flac -=- CDDA (100%)13 -=- 13 - Movin' On Down The Road.flac -=- CDDA (100%)14 -=- 14 - Crossing Over.flac -=- CDDA (100%)15 -=- 15 - If Not For You.flac -=- CDDA (100%)
Сводка 99,80% CDDA
14016852

Об исполнителе (группе)

http://jaimekylemusic.com/www.Jaimekylemusic.com/Home.html

To download the content you need:
1. Download and install torrent client [for Windows] or for mobile system
2. Click on [Download]
Attention.
If the test YOU are NOT a ROBOT - does not work, then You are using an outdated browser.
Install the current browser and click on [Download]
Security: torrent client is allowed by Kaspersky.

[asmlocator.ru].t175477.torrent 
Torrent: Registered [ 2016-07-19 22:15 ] · B7066B5E9153E538A0098C368B37F3089E11112C

Download .torrent

Download

19 KB

Status: checked
Completed: 0 times
Size: 448 MB
terms.php
[Profile] [PM]
Display posts:    
Reply to topic

Current time is: 21-Jul 07:44

All times are UTC ± 0



You cannot post new topics in this forum
You cannot reply to topics in this forum
You cannot edit your posts in this forum
You cannot delete your posts in this forum
You cannot vote in polls in this forum
You cannot attach files in this forum
You can download files in this forum