(Folk/Rock) Леонид Борткевич (Песняры) 5 CD -2004-2005 FLAC (image+.cue) lossless

Reply to topic
DL-List and Torrent activity
Size:  1.53 GB   |    Registered:  2 years 11 months   |    Completed:  2 times

Seeder not seen: 9 minutes

 
   
 
 
Author Message

star21 ®

Gender: Female

Longevity: 3 years 7 months

Posts: 552117

Location: Екатеринбург

Post 01-Jul-2016 10:20

[Quote]

Леонид Борткевич (Песняры)
Жанр: Folk/Rock
Годы выпуска дисков: 2004-2005
Производитель диска: Белоруссия
Аудио кодек: FLAC
Тип рипа: image+.cue
Битрейт аудио: lossless
Продолжительность: 5 CD
Сканы обложек внутри раздачи

2004-1 МОЙ РОДНЫ КУТ

Трэклист:
1 Алесандрына (В.Мулявин - П.Бровка) (6:48)
2 Алеся (И.Лученок - А.Кулешов) (4:23)
3 Белоруссия (А.Пахмутова - Н.Добронравов) (5:06)
4 Бярозка (И.Лученок - А.Велюгин) (3:38)
5 Почему не ведаю (В.Мигуля - А.Поперечный) (3:28)
6 Домик на окраине (В.Мигуля - А.Поперечный) (4:49)
7 Явар и Калина (Ю.Семеняко - Я.Купала) (4:42)
8 Калыханка (Д.Евтухович - А.Пранчак) (3:27)
9 Трэба дома бываць часцей (И.Лученок - Р.Бородулин) (3:42)
10 Мой родны кут (И.Лученок - Я.Колас) (4:17)
11 Ёсць такая рэчка (А.Журбин - Е.Шевелева) (4:00)
12 Шумныя бярозы (В.Теравский - Я.Купала) (3:08)
13 Уголок России (В.Шаинский - Е.Шевелева) (5:16)
14 У тым сяле (И.Лученок - Н.Гилевич) (3:10)
15 Костры горят (Б.Мокроусов - М.Матусовский) (2:32)

Отчёт EAC

Отчёт EAC об извлечении, выполненном 13. августа 2009, 1:29
Леонид Борткевич / Мой родны кут
Дисковод: HL-DT-STDVD-RAM GSA-H55N Adapter: 0 ID: 1
Режим чтения : Достоверность
Использование точного потока : Да
Отключение кэша аудио : Да
Использование указателей C2 : Нет
Коррекция смещения при чтении : 102
Способность читать области Lead-in и Lead-out : Нет
Заполнение пропущенных сэмплов тишиной : Да
Удаление блоков с тишиной в начале и конце : Нет
При вычислениях CRC использовались нулевые сэмплы : Да
Интерфейс : Встроенный Win32-интерфейс для Win NT/2000
Выходной формат : Внутренние WAV-операции
Формат сэмплов : 44.100 Гц; 16 бит; стерео
Смещение при сжатии : 0
TOC извлечённого CD
Трек | Старт | Длительность | Начальный сектор | Конечный сектор
---------------------------------------------------------------------
1 | 0:00.00 | 6:48.47 | 0 | 30646
2 | 6:48.47 | 4:23.66 | 30647 | 50437
3 | 11:12.38 | 5:06.40 | 50438 | 73427
4 | 16:19.03 | 3:38.43 | 73428 | 89820
5 | 19:57.46 | 3:28.26 | 89821 | 105446
6 | 23:25.72 | 4:49.35 | 105447 | 127156
7 | 28:15.32 | 4:42.41 | 127157 | 148347
8 | 32:57.73 | 3:27.51 | 148348 | 163923
9 | 36:25.49 | 3:42.46 | 163924 | 180619
10 | 40:08.20 | 4:17.72 | 180620 | 199966
11 | 44:26.17 | 4:00.25 | 199967 | 217991
12 | 48:26.42 | 3:08.32 | 217992 | 232123
13 | 51:34.74 | 5:16.43 | 232124 | 255866
14 | 56:51.42 | 3:10.28 | 255867 | 270144
15 | 60:01.70 | 2:32.17 | 270145 | 281561
Характеристики диапазона извлечения и сообщения об ошибках
Выбранный диапазон
Имя файла G:\Мой музык\Песняры\Борткевич\Мой родны кут\Новая папка\Леонид Борткевич - Мой родны кут.wav
Пиковый уровень 100.0 %
Качество диапазона 99.9 %
CRC теста C08426BC
CRC копии C08426BC
Копирование... OK
Ошибок не произошло
Конец отчёта

2004-2 АКСАМІТНЫ ВЕЧАР

Трэклист:
1 Зорачка (Э.Зарицкий - Н.Гилевич) (5:03)
2 Аксамiтны вечар (В.Новицкий - С.Соколов-Воюш) (4:13)
3 Спявай мне дзяўчынка (В.Будник - М.Чарот) (4:22)
4 Старый конь (К.В.Николаев - Н.Рубцов) (2:36)
5 Чабаровая паляна (В.Евтухович - Л.Прончак) (3:17)
6 Туманы (Е.Магалиф - С.Соколов-Воюш) (3:50)
7 Час вечаровы (Г.Вагнер - Г.Бородулин) (2:33)
8 Я не забыў (В.Будник - П.Макаль) (3:26)
9 На вуліцы мокра (бел. нар. песня обр. Смелковского) (3:34)
10 Ой, у полі тры крынічанькі (бел. нар. песня) (3:57)
11 Што за месяц, што за ясны (бел. нар. песня) (3:45)
12 Куда уехал цирк (В.Быстряков - Левин) (4:08)
13 Даставай, Язэп, гармонік (В.Евтухович - Л.Прончак) (3:46)

Отчёт EAC

Exact Audio Copy V0.99 prebeta 4 from 23. January 2008
Отчёт EAC об извлечении, выполненном 13. августа 2009, 19:33
Леонид Борткевич / Аксамiтны вечар
Дисковод: HL-DT-STDVD-RAM GSA-H55N Adapter: 0 ID: 1
Режим чтения : Достоверность
Использование точного потока : Да
Отключение кэша аудио : Да
Использование указателей C2 : Нет
Коррекция смещения при чтении : 102
Способность читать области Lead-in и Lead-out : Нет
Заполнение пропущенных сэмплов тишиной : Да
Удаление блоков с тишиной в начале и конце : Нет
При вычислениях CRC использовались нулевые сэмплы : Да
Интерфейс : Встроенный Win32-интерфейс для Win NT/2000
Выходной формат : Внутренние WAV-операции
Формат сэмплов : 44.100 Гц; 16 бит; стерео
Смещение при сжатии : 0
TOC извлечённого CD
Трек | Старт | Длительность | Начальный сектор | Конечный сектор
---------------------------------------------------------------------
1 | 0:00.00 | 5:04.14 | 0 | 22813
2 | 5:04.14 | 4:13.33 | 22814 | 41821
3 | 9:17.47 | 4:22.47 | 41822 | 61518
4 | 13:40.19 | 2:36.67 | 61519 | 73285
5 | 16:17.11 | 3:17.70 | 73286 | 88130
6 | 19:35.06 | 3:51.03 | 88131 | 105458
7 | 23:26.09 | 2:33.53 | 105459 | 116986
8 | 25:59.62 | 3:26.25 | 116987 | 132461
9 | 29:26.12 | 3:34.15 | 132462 | 148526
10 | 33:00.27 | 3:57.26 | 148527 | 166327
11 | 36:57.53 | 3:46.09 | 166328 | 183286
12 | 40:43.62 | 4:08.69 | 183287 | 201955
13 | 44:52.56 | 3:46.27 | 201956 | 218932
Характеристики диапазона извлечения и сообщения об ошибках
Выбранный диапазон
Имя файла G:\Мой музык\Песняры\Борткевич\Bortkevich. Pesnyar\2004-2 Аксамiтны вечар\Леонид Борткевич - Аксамiтны вечар.wav
Пиковый уровень 100.0 %
Качество диапазона 99.9 %
CRC теста 5F41CF99
CRC копии 5F41CF99
Копирование... OK
Ошибок не произошло
Конец отчёта

2004-3 БЕРЕЗОВЫЙ СОК

Трэклист:
1 Березовый сок (В.Баснер - М.Матусовский) (4:31)
2 Песня аб Радзіме (Л.Борткевич - Г.Буравкин) (2:44)
3 Ажанілі мяне (белорусская народная песня) (5:25)
4 А у полі бяроза (белорусская народная песня) (3:44)
5 Алена (В.Иванов - В.Шимук) (2:04)
6 Бегла старожа (белорусская народная песня, обработка Э.Зарицкого) (3:54)
7 Вераніка (И.Лученок - М.Богданович) (5:58)
8 Беларусачка (Ю.Семеняка - А.Ставер) (3:16)
9 Не судзіла ты мне доля (Р.Пукет - Я.Купала) (2:54)
10 Песня пастуха (слова и музыка П.Шидловский) (2:21)
11 Пацалунак (И.Лученок - В.Коризно) (2:01)
12 Сябе да адзіноты прывучаю (А.Смыслов, А.Ковалев - Г.Буравкин) (3:56)
13 Я не магу пра вас забыцца (И.Лученок - П.Бровка) (3:01)
14 Як у лесе зацвiталi (Д.Лукас - Я.Купала) (2:46)
15 Cцежка юнацтва (Э.Зарицкий - Г.Пашков) (3:02)
16 Речицкая лирическая (Н.Коньшин - П.Вишняк) (3:53)

Отчёт EAC

Exact Audio Copy V0.99 prebeta 4 from 23. January 2008
Отчёт EAC об извлечении, выполненном 13. августа 2009, 2:36
Леонид Борткевич / Березовый сок
Дисковод: HL-DT-STDVD-RAM GSA-H55N Adapter: 0 ID: 1
Режим чтения : Достоверность
Использование точного потока : Да
Отключение кэша аудио : Да
Использование указателей C2 : Нет
Коррекция смещения при чтении : 102
Способность читать области Lead-in и Lead-out : Нет
Заполнение пропущенных сэмплов тишиной : Да
Удаление блоков с тишиной в начале и конце : Нет
При вычислениях CRC использовались нулевые сэмплы : Да
Интерфейс : Встроенный Win32-интерфейс для Win NT/2000
Выходной формат : Внутренние WAV-операции
Формат сэмплов : 44.100 Гц; 16 бит; стерео
Смещение при сжатии : 0
TOC извлечённого CD
Трек | Старт | Длительность | Начальный сектор | Конечный сектор
---------------------------------------------------------------------
1 | 0:00.00 | 4:31.40 | 0 | 20364
2 | 4:31.40 | 2:44.52 | 20365 | 32716
3 | 7:16.17 | 5:25.65 | 32717 | 57156
4 | 12:42.07 | 3:44.36 | 57157 | 73992
5 | 16:26.43 | 2:04.69 | 73993 | 83361
6 | 18:31.37 | 3:54.53 | 83362 | 100964
7 | 22:26.15 | 5:58.56 | 100965 | 127870
8 | 28:24.71 | 3:16.69 | 127871 | 142639
9 | 31:41.65 | 2:54.72 | 142640 | 155761
10 | 34:36.62 | 2:21.11 | 155762 | 166347
11 | 36:57.73 | 2:01.73 | 166348 | 175495
12 | 38:59.71 | 3:56.46 | 175496 | 193241
13 | 42:56.42 | 3:01.64 | 193242 | 206880
14 | 45:58.31 | 2:46.25 | 206881 | 219355
15 | 48:44.56 | 3:03.05 | 219356 | 233085
16 | 51:47.61 | 3:54.08 | 233086 | 250643
Характеристики диапазона извлечения и сообщения об ошибках
Выбранный диапазон
Имя файла G:\Мой музык\Песняры\Борткевич\Берёзовый сок\Леонид Борткевич - Березовый сок.wav
Пиковый уровень 100.0 %
Качество диапазона 99.9 %
CRC теста 63A6D110
CRC копии 63A6D110
Копирование... OK
Ошибок не произошло
Конец отчёта

2005-4 ДРОЗДЫ

Трэклист:
1 Первое апреля (В.Мигуля-А.Поперечный) (3:50)
2 Горлица (Г.Стариков-М.Гешаев) анс"Песняры" (3:32)
3 Птушка ноч (В.Шарапов) (3:18)
4 Матылi (И.Лученок-г.Буравкин) (2:50)
5 Две сестры (В.Мулявин-Ю.Рыбчинский) анс"Песняры" (3:39)
6 Сормовская лирическая (Б.Мокроусов-Е.Долматовсий) (3:54)
7 Не шукай (И.Любан-А.Русак) совместно с Данчиком и камерно-инструментальным ансамблем п/у Я.Волосюка (3:17)
8 Рояль (Е.Магалиф) (4:00)
9 Яблаўцовы лес (Е.Магалиф-А.Глобус) (4:12)
10 Сузор'е памяцi (В.Шарапов) (4:22)
11 А на моры дзяўчына (бел.нар.песня обр. А.Волк) (3:42)
12 Першы мой кумiр (В.Евтухович-Л.Прончак) (3:08)
13 Чачотачка (бел.нар.песня обр. А.Волк) (2:31)
14 Дрозды (В.Шаинский-С.Островой) анс"Песняры" (6:17)
15 Святло бяроз (Э.Зарицкий-Законников) совм.с симфонич. оркестром Б.Райского (5:00)

Отчёт EAC

Exact Audio Copy V0.99 prebeta 4 from 23. January 2008
Отчёт EAC об извлечении, выполненном 13. августа 2009, 3:34
Леонид Борткевич / Дрозды
Дисковод: HL-DT-STDVD-RAM GSA-H55N Adapter: 0 ID: 1
Режим чтения : Достоверность
Использование точного потока : Да
Отключение кэша аудио : Да
Использование указателей C2 : Нет
Коррекция смещения при чтении : 102
Способность читать области Lead-in и Lead-out : Нет
Заполнение пропущенных сэмплов тишиной : Да
Удаление блоков с тишиной в начале и конце : Нет
При вычислениях CRC использовались нулевые сэмплы : Да
Интерфейс : Встроенный Win32-интерфейс для Win NT/2000
Выходной формат : Внутренние WAV-операции
Формат сэмплов : 44.100 Гц; 16 бит; стерео
Смещение при сжатии : 0
TOC извлечённого CD
Трек | Старт | Длительность | Начальный сектор | Конечный сектор
---------------------------------------------------------------------
1 | 0:00.00 | 3:50.10 | 0 | 17259
2 | 3:50.10 | 3:31.71 | 17260 | 33155
3 | 7:22.06 | 3:17.40 | 33156 | 47970
4 | 10:39.46 | 2:49.41 | 47971 | 60686
5 | 13:29.12 | 3:39.33 | 60687 | 77144
6 | 17:08.45 | 3:53.74 | 77145 | 94693
7 | 21:02.44 | 3:17.23 | 94694 | 109491
8 | 24:19.67 | 3:59.73 | 109492 | 127489
9 | 28:19.65 | 4:11.45 | 127490 | 146359
10 | 32:31.35 | 4:21.39 | 146360 | 165973
11 | 36:52.74 | 3:41.72 | 165974 | 182620
12 | 40:34.71 | 3:08.00 | 182621 | 196720
13 | 43:42.71 | 2:30.73 | 196721 | 208043
14 | 46:13.69 | 6:16.53 | 208044 | 236296
15 | 52:30.47 | 4:59.70 | 236297 | 258791
Характеристики диапазона извлечения и сообщения об ошибках
Выбранный диапазон
Имя файла G:\Мой музык\Песняры\Борткевич\Дрозды\Леонид Борткевич - Дрозды.wav
Пиковый уровень 100.0 %
Качество диапазона 99.9 %
CRC теста 71893D55
CRC копии 71893D55
Копирование... OK
Ошибок не произошло
Конец отчёта

2004 АНСАМБЛЬ "ПЕСНЯРЫ" НЕ ВО СНЕ ЛИ

1 Не во сне ли (П.Сучков - А.Мстиславский) (3:51)
2 Ой рана на Ивана (бел. нар. песня) (4:02)
3 Коник патлатый (О.Устинович) (3:49)
4 Почему не ведаю (В.Мигуля - А.Поперечный) (3:29)
5 Реквием (Д.Долгалев - В.Поликанина) (4:03)
6 Рушники (бел. нар. песня) (3:04)
7 Ты моя надежда (Э.Ханок - В.Боков) (3:51)
8 Седина в бороду (Л.Квинт) (4:30)
9 Идем пойдем вдоль улицы (бел. нар. песня) (3:38)
10 Позови меня (Г.Высоцкий - О.Устинович) (3:46)
11 Костры горят далекие (Б.Мокроусов - М.Матусовский) (2:32)
12 У тым сяле (И.Лученок - Н.Гилевич) (3:04)

Отчёт EAC

Exact Audio Copy V0.99 prebeta 4 from 23. January 2008
Отчёт EAC об извлечении, выполненном 13. августа 2009, 20:35
Песняры. Борткевич / Не во сне ли
Дисковод: HL-DT-STDVD-RAM GSA-H55N Adapter: 0 ID: 1
Режим чтения : Достоверность
Использование точного потока : Да
Отключение кэша аудио : Да
Использование указателей C2 : Нет
Коррекция смещения при чтении : 102
Способность читать области Lead-in и Lead-out : Нет
Заполнение пропущенных сэмплов тишиной : Да
Удаление блоков с тишиной в начале и конце : Нет
При вычислениях CRC использовались нулевые сэмплы : Да
Интерфейс : Встроенный Win32-интерфейс для Win NT/2000
Выходной формат : Внутренние WAV-операции
Формат сэмплов : 44.100 Гц; 16 бит; стерео
Смещение при сжатии : 0
TOC извлечённого CD
Трек | Старт | Длительность | Начальный сектор | Конечный сектор
---------------------------------------------------------------------
1 | 0:00.00 | 3:33.13 | 0 | 15987
2 | 3:33.13 | 4:01.09 | 15988 | 34071
3 | 7:34.22 | 3:49.33 | 34072 | 51279
4 | 11:23.55 | 3:30.07 | 51280 | 67036
5 | 14:53.62 | 3:57.53 | 67037 | 84864
6 | 18:51.40 | 3:04.21 | 84865 | 98685
7 | 21:55.61 | 3:51.45 | 98686 | 116055
8 | 25:47.31 | 4:25.11 | 116056 | 135941
9 | 30:12.42 | 3:40.12 | 135942 | 152453
10 | 33:52.54 | 3:09.13 | 152454 | 166641
11 | 37:01.67 | 2:32.59 | 166642 | 178100
12 | 39:34.51 | 3:06.28 | 178101 | 192078
Характеристики диапазона извлечения и сообщения об ошибках
Выбранный диапазон
Имя файла G:\Мой музык\Песняры\Борткевич\Bortkevich. Pesnyar\Не во сне ли\Песняры. Борткевич - Не во сне ли.wav
Пиковый уровень 100.0 %
Качество диапазона 99.9 %
CRC теста C9C0F044
CRC копии C9C0F044
Копирование... OK
Ошибок не произошло
Конец отчёта
Примечание: На сайте Песняров одна из композиций Борткевича называется "Ядлаўцовы лес" (Можжевеловый лес). На обложке написано "ЯБлаўцовы лес". Думаю, что это ошибка полиграфов, слабо знающих свой язык (выпуск то белорусский).
Ну и сами выпускающие - Тау-анализатор говорит, что некоторые трэки не сидюшные. Это же видно и по спектру. Так что это не мой косяк. Ну, как говорится, за что взял, за то и ...отдаю.

To download the content you need:
1. Download and install torrent client [for Windows] or for mobile system
2. Click on [Download]
Attention.
If the test YOU are NOT a ROBOT - does not work, then You are using an outdated browser.
Install the current browser and click on [Download]
Security: torrent client is allowed by Kaspersky.

[asmlocator.ru].t160676.torrent 
Torrent: Registered [ 2016-07-01 10:20 ] · 34F981D8CF060A8A55F9D766C2759750D69904BB

Download .torrent

Download

19 KB

Status: checked
Completed: 2 times
Size: 1.53 GB
terms.php
[Profile] [PM]

soobol11

Gender: Male

Longevity: 25 days

Posts: 1

Location: московская область

Post 10-Jun-2019 15:42 (after 2 years 11 months)

[Quote]

Большое спасибо!
[Profile] [PM]
Display posts:    
Reply to topic

Current time is: 25-Jun 22:44

All times are UTC ± 0



You cannot post new topics in this forum
You cannot reply to topics in this forum
You cannot edit your posts in this forum
You cannot delete your posts in this forum
You cannot vote in polls in this forum
You cannot attach files in this forum
You can download files in this forum