Ключ Саламандры (Александр Якимчук) [2011, Боевик, приключения, DVDRip-AVC]

Ответить на тему
Статистика раздачи
Размер:  1,46 GB   |    Зарегистрирован:  3 года   |    Скачан:  0 раз

Полного источника не было: Никогда

 
   
 
 
Автор Сообщение

star21 ®

Пол: Женский

Стаж: 3 года

Сообщений: 552916

Откуда: Екатеринбург

Создавать темы 11-Ноя-2015 18:15

[Цитировать]

Ключ Саламандры (Александр Якимчук) [2011, Боевик, приключения, DVDRip-AVC] Торрент
Ключ Саламандры
Перевод: Профессиональный (полное дублирование), cубтитры: отсутствуют
Формат: DVDRip-AVC, MKV, XviD, AC3
Страна: США, Россия, Нидерланды
Режиссер: Александр Якимчук
Жанр: боевик, приключения
Продолжительность: 01:39:28
Год выпуска: 2011
В ролях: Федор Емельяненко, Говит Ваттанакул, Рутгер Хауэр, Майкл Мэдсен, Бо-сонг Ким, Павел Делонг, Валерий Николаев, Олег Чернов, Алексей Горбунов, Валерий Соловьев
Описание: «… Сегодня мы получили бесценный дар — эликсир жизни…» — гласит сенсационное заявление главы корпорации «Фарм-Лайн» в Бангкоке. Чудотворный препарат появился благодаря исследованиям свойств саламандры обновлять клетки… «Самоубийство конгрессмена! Восьмой случай за месяц! Эпидемия самоубийств!», — так звучат заголовки газет. Один из лучших полицейский тайской столицы берется за расследование череды таинственных смертей…
На острове в Юго-Восточной Азии пропала Международная научная экспедиция. Последнее сообщение, полученное от ученых, говорит об угрозе глобальной катастрофы. Спасательная группа находит на острове следы лаборатории, в которой проводили опыты над животными и людьми… Что объединяет все эти события? ? И почему ключ к разгадке надо искать в непроходимых азиатских джунглях…


Видео: 720x436@1024x436 (2.35:1), 25.000 fps, AVC, х264, ~1 645 kbps avg, 0.210 bit/pixel
Аудио: 48 kHz, AC3 Dolby Digital, 3/2 (L,C,R,l,r) + LFE ch, ~448 kbps

Отчёт MediaInfo

General
Unique ID : 181607913247985919473765034097212778598 (0x88A0696D71121A46949F62404E91E866)
Complete name : E:\РЕЛИЗЫ\Все релизы 14\kluch_salamandru_[tfile.ru].mkv
Format : Matroska
File size : 1.46 GiB
Duration : 1h 39mn
Overall bit rate : 2 095 Kbps
Movie name : Kljuch Salamandry / 2011 / Release by Vaippp / OpenSharing Team
Encoded date : UTC 2011-04-21 18:18:35
Writing application : mkvmerge v4.6.0 ('Still Crazy After All These Years') сборка от Mar 10 2011 02:50:32
Writing library : libebml v1.2.0 + libmatroska v1.1.0
Video
ID : 1
Format : AVC
Format/Info : Advanced Video Codec
Format profile :
Format settings, CABAC : Yes
Format settings, ReFrames : 9 frames
Codec ID : V_MPEG4/ISO/AVC
Duration : 1h 39mn
Bit rate : 1 645 Kbps
Width : 720 pixels
Height : 436 pixels
Display aspect ratio : 2.35:1
Frame rate : 25.000 fps
Color space : YUV
Chroma subsampling : 4:2:0
Bit depth : 8 bits
Scan type : Progressive
Bits/(Pixel*Frame) : 0.210
Stream size : 1.12 GiB (77%)
Title : DVDRip by Vaippp
Writing library : x264 core 114 r1913 5fd3dce
Encoding settings : cabac=1 / ref=9 / deblock=1:-2:-1 / analyse=0x3:0x133 / me=umh / subme=9 / psy=1 / psy_rd=1.00:0.10 / mixed_ref=1 / me_range=32 / chroma_me=1 / trellis=1 / 8x8dct=1 / cqm=0 / deadzone=21,11 / fast_pskip=0 / chroma_qp_offset=-3 / threads=4 / sliced_threads=0 / nr=0 / decimate=1 / interlaced=0 / constrained_intra=0 / bframes=8 / b_pyramid=2 / b_adapt=2 / b_bias=0 / direct=3 / weightb=1 / open_gop=0 / weightp=2 / keyint=250 / keyint_min=25 / scenecut=40 / intra_refresh=0 / rc_lookahead=60 / rc=2pass / mbtree=1 / bitrate=1645 / ratetol=1.0 / qcomp=0.70 / qpmin=10 / qpmax=51 / qpstep=4 / cplxblur=20.0 / qblur=0.5 / ip_ratio=1.40 / aq=1:1.00 / zones=142306,149216,q=35
Language : Russian
Audio
ID : 2
Format : AC-3
Format/Info : Audio Coding 3
Mode extension : CM (complete main)
Codec ID : A_AC3
Duration : 1h 39mn
Bit rate mode : Constant
Bit rate : 448 Kbps
Channel(s) : 6 channels
Channel positions : Front: L C R, Side: L R, LFE
Sampling rate : 48.0 KHz
Bit depth : 16 bits
Compression mode : Lossy
Stream size : 319 MiB (21%)
Title : Original
Language : Russian

Для скачки контента: [Установить программу-клиент] и кликнуть по - СкачатьБезопасность: клиент проверен АВ Касперского

[asmlocator.ru].t135.torrent 
Торрент: Зарегистрирован [ 2015-11-11 18:14 ] · CBA18A2006322D8CF584A9310A6FDFFD0B2AFB19

Скачать .torrent

Скачать

16 KB

Статус: проверено
Скачан: 0 раз
Размер: 1,46 GB
terms.php
[Профиль] [ЛС]
Показать сообщения:    
Ответить на тему

Текущее время: 18-Ноя 06:55

Часовой пояс: UTC ± 0



Вы не можете начинать темы
Вы не можете отвечать на сообщения
Вы не можете редактировать свои сообщения
Вы не можете удалять свои сообщения
Вы не можете голосовать в опросах
Вы не можете прикреплять файлы к сообщениям
Вы можете скачивать файлы