Ключ Саламандры (Александр Якимчук) [2011, боевик, приключения, LowHDRip-AVC]

Ответить на тему
Статистика раздачи
Размер:  746 MB   |    Зарегистрирован:  3 года   |    Скачан:  0 раз

Полного источника не было: Никогда

 
   
 
 
Автор Сообщение

star21 ®

Пол: Женский

Стаж: 3 года

Сообщений: 552916

Откуда: Екатеринбург

Создавать темы 11-Ноя-2015 18:15

[Цитировать]

Ключ Саламандры (Александр Якимчук) [2011, боевик, приключения, LowHDRip-AVC] Торрент
Ключ Саламандры
Перевод: Профессиональный (полное дублирование), cубтитры: отсутствуют
Формат: LowHDRip-AVC, MKV, H.264, AC3
Страна: США, Россия, Нидерланды
Режиссер: Александр Якимчук
Жанр: боевик, приключения
Продолжительность: 01:43:46
Год выпуска: 2011
В ролях: Федор Емельяненко, Говит Ваттанакул, Рутгер Хауэр, Майкл Мэдсен, Бо-сонг Ким, Павел Делонг, Валерий Николаев, Олег Чернов, Алексей Горбунов, Валерий Соловьев
Описание: «… Сегодня мы получили бесценный дар — эликсир жизни…» — гласит сенсационное заявление главы корпорации «Фарм-Лайн» в Бангкоке. Чудотворный препарат появился благодаря исследованиям свойств саламандры обновлять клетки… «Самоубийство конгрессмена! Восьмой случай за месяц! Эпидемия самоубийств!», — так звучат заголовки газет. Один из лучших полицейский тайской столицы берется за расследование череды таинственных смертей…
На острове в Юго-Восточной Азии пропала Международная научная экспедиция. Последнее сообщение, полученное от ученых, говорит об угрозе глобальной катастрофы. Спасательная группа находит на острове следы лаборатории, в которой проводили опыты над животными и людьми… Что объединяет все эти события? И почему ключ к разгадке надо искать в непроходимых азиатских джунглях…


Видео: 640 x 272 (2.35:1), 24.000 fps, AVC (х264), ~875 kbps avg, 0.209 bit/pixel
Аудио: 48 kHz, AC3 Dolby Digital, 3/2 (L,C,R,l,r) + LFE ch, ~128 kbps
Релиз-Группа

Рип: jeenart

Отчёт MediaInfo

General
Unique ID : 225514848936088619126715436044627062039 (0xA9A8947DF5C54910BB9DD6A00B99AD17)
Complete name : E:\РЕЛИЗЫ\Все релизы 16\kljuch_salamandry_[tfile.ru].mkv
Format : Matroska
File size : 746 MiB
Duration : 1h 43mn
Overall bit rate : 1 005 Kbps
Encoded date : UTC 2011-05-22 06:23:22
Writing application : mkvmerge v4.6.0 ('Still Crazy After All These Years') сборка от Apr 1 2011 21:01:49
Writing library : libebml v1.2.0 + libmatroska v1.1.0
Video
ID : 1
Format : AVC
Format/Info : Advanced Video Codec
Format profile :
Format settings, CABAC : Yes
Format settings, ReFrames : 4 frames
Format settings, GOP : M=3, N=4
Codec ID : V_MPEG4/ISO/AVC
Duration : 1h 43mn
Bit rate : 875 Kbps
Width : 640 pixels
Height : 272 pixels
Display aspect ratio : 2.35:1
Frame rate : 24.000 fps
Color space : YUV
Chroma subsampling : 4:2:0
Bit depth : 8 bits
Scan type : Progressive
Bits/(Pixel*Frame) : 0.209
Stream size : 636 MiB (85%)
Writing library : x264 core 115 r1937 aa21558
Encoding settings : cabac=1 / ref=3 / deblock=1:-1:-1 / analyse=0x3:0x113 / me=hex / subme=7 / psy=1 / psy_rd=1.00:0.10 / mixed_ref=1 / me_range=16 / chroma_me=1 / trellis=1 / 8x8dct=1 / cqm=0 / deadzone=21,11 / fast_pskip=1 / chroma_qp_offset=-3 / threads=6 / sliced_threads=0 / nr=0 / decimate=1 / interlaced=0 / bluray_compat=0 / constrained_intra=0 / bframes=3 / b_pyramid=2 / b_adapt=1 / b_bias=0 / direct=1 / weightb=1 / open_gop=0 / weightp=2 / keyint=250 / keyint_min=23 / scenecut=40 / intra_refresh=0 / rc_lookahead=40 / rc=2pass / mbtree=1 / bitrate=875 / ratetol=1.0 / qcomp=0.60 / qpmin=0 / qpmax=69 / qpstep=4 / cplxblur=20.0 / qblur=0.5 / ip_ratio=1.40 / aq=1:1.00
Audio
ID : 2
Format : AC-3
Format/Info : Audio Coding 3
Mode extension : CM (complete main)
Codec ID : A_AC3
Duration : 1h 43mn
Bit rate mode : Constant
Bit rate : 128 Kbps
Channel(s) : 6 channels
Channel positions : Front: L C R, Side: L R, LFE
Sampling rate : 48.0 KHz
Bit depth : 16 bits
Compression mode : Lossy
Stream size : 95.0 MiB (13%)

Для скачки контента: [Установить программу-клиент] и кликнуть по - СкачатьБезопасность: клиент проверен АВ Касперского

[asmlocator.ru].t130.torrent 
Торрент: Зарегистрирован [ 2015-11-11 18:14 ] · 35FA923C7FA13EA343418332E9B93B008766F2B8

Скачать .torrent

Скачать

16 KB

Статус: проверено
Скачан: 0 раз
Размер: 746 MB
terms.php
[Профиль] [ЛС]
Показать сообщения:    
Ответить на тему

Текущее время: 18-Ноя 06:52

Часовой пояс: UTC ± 0



Вы не можете начинать темы
Вы не можете отвечать на сообщения
Вы не можете редактировать свои сообщения
Вы не можете удалять свои сообщения
Вы не можете голосовать в опросах
Вы не можете прикреплять файлы к сообщениям
Вы можете скачивать файлы