Поцелуй бабочки (Антон Сиверс) [2006, боевик, мелодрама, криминал, DVDRip-AVC]

Ответить на тему
Статистика раздачи
Размер:  1,45 GB   |    Зарегистрирован:  3 года   |    Скачан:  0 раз
 
   
 
 
Автор Сообщение

star21 ®

Пол: Женский

Стаж: 3 года

Сообщений: 552916

Откуда: Екатеринбург

Создавать темы 11-Ноя-2015 18:15

[Цитировать]

Поцелуй бабочки (Антон Сиверс) [2006, боевик, мелодрама, криминал, DVDRip-AVC] Торрент
Поцелуй бабочки
Формат: DVDRip-AVC, MKV, H.264, AC3
Режиссер: Антон Сиверс
Жанр: боевик, мелодрама, криминал
Продолжительность: 01:35:26
Год выпуска: 2006
В ролях: Сергей Безруков, Линь Янь, Леонид Громов, Константин Воробьев, Андрей Астраханцев, Анна Дубровская, Георгий Пицхелаури, Константин Шелестун, Сергей Шеховцов, Хельга Филиппова, Лаура Пицхелаури
Описание: Молодой компьютерный гений Орланов, добившийся к своим 30-ти и славы, и достатка, и успеха у женщин однажды утром после бурно проведенного вечера обнаруживает у себя в постели загадочную китаянку Ли. Легкое приключение перерастает в одержимость. Однако оказывается, что на пути у страсти стоит не только непредсказуемость новой возлюбленной, но и китайская мафия, в криминальных делах которой замешана Ли.

Видео: 1024 x 568 (1.80:1), 25.000 fps, AVC х264, , ~ 1796 Kbps Kbps, 0.124 bit/pixel
Аудио: 48 kHz, AC3 Dolby Digital, 3/2 (L,C,R,l,r) + LFE ch, ~384 kbps

Релиз группы: R.G.NasheKino
Рип: jeenart

Отчёт MediaInfo

General
Unique ID : 184830087588141356565402205744453702378 (0x8B0CFAE34F4C865CA9C790F6AFFCD2EA)
Complete name : F:\Мои релизы\Все релизы 10\Поцелуй бабочки 2006.H.264.AC3-R.G.NasheKino-[tfile.ru].mkv
Format : Matroska
File size : 1.45 GiB
Duration : 1h 35mn
Overall bit rate : 2 182 Kbps
Encoded date : UTC 2012-01-26 09:50:02
Writing application : mkvmerge v4.6.0 ('Still Crazy After All These Years') сборка от Apr 1 2011 21:01:49
Writing library : libebml v1.2.0 + libmatroska v1.1.0
Video
ID : 1
Format : AVC
Format/Info : Advanced Video Codec
Format profile :
Format settings, CABAC : Yes
Format settings, ReFrames : 4 frames
Format settings, GOP : M=1, N=5
Codec ID : V_MPEG4/ISO/AVC
Duration : 1h 35mn
Bit rate : 1 796 Kbps
Width : 1 024 pixels
Height : 568 pixels
Display aspect ratio : 16:9
Frame rate : 25.000 fps
Color space : YUV
Chroma subsampling : 4:2:0
Bit depth : 8 bits
Scan type : Progressive
Bits/(Pixel*Frame) : 0.124
Stream size : 1.17 GiB (80%)
Writing library : x264 core 115 r1937 aa21558
Encoding settings : cabac=1 / ref=3 / deblock=1:-1:-1 / analyse=0x3:0x113 / me=hex / subme=7 / psy=1 / psy_rd=1.00:0.10 / mixed_ref=1 / me_range=16 / chroma_me=1 / trellis=1 / 8x8dct=1 / cqm=0 / deadzone=21,11 / fast_pskip=1 / chroma_qp_offset=-3 / threads=6 / sliced_threads=0 / nr=0 / decimate=1 / interlaced=0 / bluray_compat=0 / constrained_intra=0 / bframes=3 / b_pyramid=2 / b_adapt=1 / b_bias=0 / direct=3 / weightb=1 / open_gop=0 / weightp=2 / keyint=250 / keyint_min=25 / scenecut=40 / intra_refresh=0 / rc_lookahead=40 / rc=2pass / mbtree=1 / bitrate=1796 / ratetol=1.0 / qcomp=0.60 / qpmin=0 / qpmax=69 / qpstep=4 / cplxblur=20.0 / qblur=0.5 / ip_ratio=1.40 / aq=1:1.00
Audio
ID : 2
Format : AC-3
Format/Info : Audio Coding 3
Mode extension : CM (complete main)
Codec ID : A_AC3
Duration : 1h 35mn
Bit rate mode : Constant
Bit rate : 384 Kbps
Channel(s) : 6 channels
Channel positions : Front: L C R, Side: L R, LFE
Sampling rate : 48.0 KHz
Bit depth : 16 bits
Compression mode : Lossy
Stream size : 262 MiB (18%)

Для скачки контента: [Установить программу-клиент] и кликнуть по - СкачатьБезопасность: клиент проверен АВ Касперского

[asmlocator.ru].t101.torrent
Торрент: Зарегистрирован [ 2015-11-11 18:14 ] · 9DE9FBDC222ABC25875648CC968F09E1CE7C6A28

Скачать .torrent

Скачать

16 KB

Статус: © закрыто правообладателем
Скачан: 0 раз
Размер: 1,45 GB
terms.php
[Профиль] [ЛС]
Показать сообщения:    
Ответить на тему

Текущее время: 18-Ноя 02:44

Часовой пояс: UTC ± 0



Вы не можете начинать темы
Вы не можете отвечать на сообщения
Вы не можете редактировать свои сообщения
Вы не можете удалять свои сообщения
Вы не можете голосовать в опросах
Вы не можете прикреплять файлы к сообщениям
Вы можете скачивать файлы