Slove. Прямо в сердце (Юрий Королёв) [2011, боевик, триллер, мелодрама, DVDRip-AVC]

Ответить на тему
Статистика раздачи
Размер:  1,36 GB   |    Зарегистрирован:  3 года   |    Скачан:  0 раз

Полного источника не было: Никогда

 
   
 
 
Автор Сообщение

star21 ®

Пол: Женский

Стаж: 3 года

Сообщений: 552916

Откуда: Екатеринбург

Создавать темы 11-Ноя-2015 18:15

[Цитировать]

Slove. Прямо в сердце (Юрий Королёв) [2011, боевик, триллер, мелодрама, DVDRip-AVC] Торрент
Slove. Прямо в сердце
Формат: DVDRip-AVC, MKV, H.264, AC3
Режиссер: Юрий Королёв
Жанр: боевик, триллер, мелодрама
Продолжительность: 01:23:40
Год выпуска: 2011
В ролях: Алексей Чадов, Андрей Чадов, Вячеслав Чичиварин, Карина Хидэкель, Сергей Юшкевич, Игорь Жижикин, Олег Шеремет, Герман Стааль, Максим Юдин, Игорь Буроличев
Описание: SLOVE» — soldieroflove. Он был солдатом чести, а стал солдатом удачи. Он хотел справедливости, а стал оружием в руках коррупционеров. Он хотел любви, но любовь не может быть рядом со смертью.
«SLOVE» — оперативный позывной Алексея Ронина, младшего из трех братьев, выросших в семье военного. Руководствуясь обостренным чувством справедливости, которое воспитал в них отец, братья решили посвятить себя борьбе с преступностью. Старший Григорий погиб во время операции по ликвидации канала наркотрафика, Сергей и Алексей решили продолжить дело брата. Они стали бороться с преступностью под личиной МВД…


Видео: 720х480 (1.50:0) =>1024х480 (2.13:1), 25 fps, AVC (x264), , 1 884 Kbps, 0.213 bit/pixel
Аудио: 48 kHz, AC3 Dolby Digital, 6 ch (Front: L C R, Surround: L R, LFE), 448 Kbps

Отчет MediaInfo

Complete name : Slove. Прямо в сердце.mkv
Format : Matroska
File size : 1.36 GiB
Duration : 1h 23mn
Overall bit rate : 2 334 Kbps
Encoded date : UTC 2011-03-11 19:45:21
Writing application : mkvmerge v3.3.0 ('Language') built on Mar 24 2010 14:59:24
Writing library : libebml v0.8.0 + libmatroska v0.9.0
Video
ID : 1
Format : AVC
Format/Info : Advanced Video Codec
Format profile :
Format settings, CABAC : Yes
Format settings, ReFrames : 8 frames
Muxing mode : Container profile=Unknown@3.0
Codec ID : V_MPEG4/ISO/AVC
Duration : 1h 23mn
Bit rate : 1 840 Kbps
Nominal bit rate : 1 884 Kbps
Width : 720 pixels
Height : 480 pixels
Display aspect ratio : 2.2:1
Frame rate : 25.000 fps
Standard : NTSC
Resolution : 8 bits
Colorimetry : 4:2:0
Scan type : Progressive
Bits/(Pixel*Frame) : 0.213
Stream size : 1.08 GiB (79%)
Writing library : x264 core 92 r1510 33d382a
Encoding settings : cabac=1 / ref=8 / deblock=1:-1:-1 / analyse=0x3:0x133 / me=umh / subme=7 / psy=1 / psy_rd=1.00:0.10 / mixed_ref=1 / me_range=16 / chroma_me=1 / trellis=2 / 8x8dct=1 / cqm=0 / deadzone=21,11 / fast_pskip=0 / chroma_qp_offset=-3 / threads=3 / sliced_threads=0 / nr=0 / decimate=1 / interlaced=0 / constrained_intra=0 / bframes=5 / b_pyramid=2 / b_adapt=2 / b_bias=0 / direct=3 / wpredb=1 / wpredp=2 / keyint=250 / keyint_min=25 / scenecut=40 / intra_refresh=0 / rc_lookahead=50 / rc=2pass / mbtree=1 / bitrate=1884 / ratetol=1.0 / qcomp=0.60 / qpmin=10 / qpmax=51 / qpstep=4 / cplxblur=20.0 / qblur=0.5 / ip_ratio=1.40 / aq=1:1.00
Audio
ID : 2
Format : AC-3
Format/Info : Audio Coding 3
Codec ID : A_AC3
Duration : 1h 23mn
Bit rate mode : Constant
Bit rate : 448 Kbps
Channel(s) : 6 channels
Channel positions : Front: L C R, Surround: L R, LFE
Sampling rate : 48.0 KHz
Stream size : 268 MiB (19%)

Для скачки контента: [Установить программу-клиент] и кликнуть по - СкачатьБезопасность: клиент проверен АВ Касперского

[asmlocator.ru].t100.torrent 
Торрент: Зарегистрирован [ 2015-11-11 18:14 ] · D379FE1A212F4D4DC2AB02E781EB41891F974043

Скачать .torrent

Скачать

15 KB

Статус: проверено
Скачан: 0 раз
Размер: 1,36 GB
terms.php
[Профиль] [ЛС]
Показать сообщения:    
Ответить на тему

Текущее время: 18-Ноя 06:54

Часовой пояс: UTC ± 0



Вы не можете начинать темы
Вы не можете отвечать на сообщения
Вы не можете редактировать свои сообщения
Вы не можете удалять свои сообщения
Вы не можете голосовать в опросах
Вы не можете прикреплять файлы к сообщениям
Вы можете скачивать файлы