[CBT Nuggets] Exam-Pack 70-640: Windows Server 2008 Active Directory, Configuring with R2 Updates [2011, ENG]

Ответить на тему
Статистика раздачи
Размер:  1.38 GB   |    Зарегистрирован:  4 года 3 месяца   |    Скачан:  0 раз

Полного источника не было: 2 года 7 месяцев

 
   
 
 
Автор Сообщение

star21 ®

Пол: Женский

Стаж: 4 года 8 месяцев

Сообщений: 551945

Откуда: Екатеринбург

Создавать темы 17-Мар-2016 10:20

[Цитировать]

Exam-Pack 70-640: Windows Server 2008 Active Directory, Configuring with R2 Updates
Год выпуска: 2011
Производитель: CBT Nuggets
Сайт производителя: http://www.cbtnuggets.com/
Автор: James Conrad
Продолжительность: 21:20:00
Тип раздаваемого материала: Видеоурок
Язык: Английский
Описание: Видеоуроки для администраторов Active Directory - подробная информация, с учетом обновления R2 для Windows Server 2008
Файлы примеров: не предусмотрены
Формат видео: WMV и MP4

Техническая информация WMV

General
Complete name : CBT Nuggets 70-640 Active Directory with R2 Updates\02 Introduction to Active Directory.wmv
Format : Windows Media
File size : 43.4 MiB
Duration : 48mn 17s
Overall bit rate mode : Variable
Overall bit rate : 126 Kbps
Maximum Overall bit rate : 734 Kbps
Encoded date : UTC 2009-02-10 23:03:35.203
Video
ID : 2
Format : WMV1
Codec ID : WMV1
Codec ID/Info : Windows Media Video 7
Description of the codec : Windows Media Video V7
Duration : 48mn 17s
Bit rate mode : Variable
Bit rate : 73.0 Kbps
Width : 800 pixels
Height : 600 pixels
Display aspect ratio : 4:3
Frame rate : 15.000 fps
Bit depth : 8 bits
Bits/(Pixel*Frame) : 0.010
Stream size : 25.2 MiB (58%)
Audio
ID : 1
Format : WMA
Format version : Version 2
Codec ID : 161
Codec ID/Info : Windows Media Audio
Description of the codec : Windows Media Audio 9.1 - 48 kbps, 44 kHz, mono (A/V) 1-pass CBR
Duration : 48mn 17s
Bit rate mode : Constant
Bit rate : 48.0 Kbps
Channel(s) : 1 channel
Sampling rate : 44.1 KHz
Bit depth : 16 bits
Stream size : 16.6 MiB (38%)

Техническая информация MP4

General
Complete name : \\iis7\treshyov$\Video\CBT Nuggets 70-640 Active Directory with R2 Updates\29 What's New in R2 - Certification Authorities.mp4
Format : MPEG-4
Format profile : Base Media / Version 2
Codec ID : mp42
File size : 27.6 MiB
Duration : 28mn 51s
Overall bit rate : 133 Kbps
Encoded date : UTC 2011-11-19 10:18:12
Tagged date : UTC 2011-11-19 10:18:12
Video
ID : 1
Format : AVC
Format/Info : Advanced Video Codec
Format profile : High@L3.1
Format settings, CABAC : Yes
Format settings, ReFrames : 4 frames
Codec ID : avc1
Codec ID/Info : Advanced Video Coding
Duration : 28mn 51s
Bit rate mode : Variable
Bit rate : 77.9 Kbps
Width : 800 pixels
Height : 600 pixels
Display aspect ratio : 4:3
Frame rate mode : Constant
Frame rate : 15.000 fps
Color space : YUV
Chroma subsampling : 4:2:0
Bit depth : 8 bits
Scan type : Progressive
Bits/(Pixel*Frame) : 0.011
Stream size : 16.1 MiB (58%)
Language : English
Encoded date : UTC 2011-11-19 10:18:12
Tagged date : UTC 2011-11-19 10:18:12
Material_Duration : 1732000
Material_StreamSize : 16858159
Material_FrameCount : 25980
Color primaries : BT.709-5, BT.1361, IEC 61966-2-4, SMPTE RP177
Transfer characteristics : BT.709-5, BT.1361
Matrix coefficients : BT.709-5, BT.1361, IEC 61966-2-4 709, SMPTE RP177
Audio
ID : 2
Format : AAC
Format/Info : Advanced Audio Codec
Format profile : LC
Codec ID : 40
Duration : 28mn 51s
Bit rate mode : Constant
Bit rate : 53.6 Kbps
Channel(s) : 2 channels
Channel positions : Front: L R
Sampling rate : 44.1 KHz
Compression mode : Lossy
Stream size : 11.1 MiB (40%)
Language : English
Encoded date : UTC 2011-11-19 10:18:12
Tagged date : UTC 2011-11-19 10:18:12
Material_Duration : 1732000
Material_StreamSize : 11594029

Скриншоты




Доп. информация: Microsoft Windows Server 2008 Active Directory 70-640
Microsoft Certified Technology Specialist (MCTS) with R2 updates
Whether you're an experienced database administrator getting up-to-speed on Server 2008 or a brand-new network admin learning Active Directory from the ground up, this is the series for you. James Conrad's video series: Configuring Active Directory for Windows Server 2008, includes plenty of tools to help you shine as an administrator.
James starts by giving you a nuts-and-bolts background understanding of this terrific Microsoft product, then he shows you lots of cool Server 2008 tools that were unavailable in previous versions of Active Directory.
In no time, you'll be an expert administering Windows Server 2008 roles and features and be ready to take Microsoft's MCTS exam 70-640. Passing this exam also moves you closer to two Server 2008 MCITP certifications: Enterprise Administrator and Server Administrator.
All trademarks and copyrights are the property of their respective holders.

Чтобы скачать этот контент, Вам необходимо:
1. Скачать и установить торрент-клиент [клик для Windows], (для мобильного найдите на Play Маркет).
2. Кликнуть по [Скачать]


Внимание.
Если проверка ВЫ НЕ РОБОТ - не работает, значит Вы используете устаревший браузер.
Установите актуальный браузер и повторно кликните по [Скачать]

Запрещён Яндекс браузер. Загрузка файлов им является ошибочной.
Безопасность: торрент-клиент разрешён АВ Касперского.

[asmlocator.ru].t73896.torrent 
Торрент: Зарегистрирован [ 2016-03-17 10:20 ] · A71A12F5EE0C8294D0EB17B2E620AD154E92F656

Скачать .torrent

Скачать

17 KB

Статус: проверено
Скачан: 0 раз
Размер: 1.38 GB
terms.php
[Профиль] [ЛС]
Показать сообщения:    
Ответить на тему

Текущее время: 16-Июл 03:20

Часовой пояс: UTC ± 0



Вы не можете начинать темы
Вы не можете отвечать на сообщения
Вы не можете редактировать свои сообщения
Вы не можете удалять свои сообщения
Вы не можете голосовать в опросах
Вы не можете прикреплять файлы к сообщениям
Вы можете скачивать файлы