Вайолет Эвергарден: Вечность и призрак пера / Violet Evergarden Gaiden: Eien to Jidou Shuki Ningyou / Violet Evergarden Side Story: Eternity and the Auto Memories Doll [Movie] [Без хардсаба] [RUS(ext), JAP] [2019, драма, повседневность, фэнтези, BDRi

Ответить на тему
Статистика раздачи
Размер:  3.39 GB   |    Зарегистрирован:  2 месяца 14 дней   |    Скачан:  0 раз

Полного источника не было: Никогда

 
   
 
 
Автор Сообщение

star21 ®

Пол: Женский

Стаж: 4 года 6 месяцев

Сообщений: 551945

Откуда: Екатеринбург

Создавать темы 19-Мар-2020 22:50

[Цитировать]

Продолжительность: 95 мин.
Год выпуска: 2019
Страна: Япония
Тип: Movie
Жанр: драма, повседневность, фэнтези
Режиссёр: Таити Исидатэ, Харука Фудзита
Студия: Kyoto Animation-Описание: «Вайолет Эвергарден: Вечность и призрак пера» изображает жизнь Изабеллы Йорк, благородной девушки и наследницы дома Йорков, которая вынуждена своим отцом посещать школу для привилегированных молодых особ. Несмотря на внешнюю красоту школы, она для неё не более чем тюрьма, потому что она задыхается в её стенах. Потеряв всякую надежду, она встречает Вайолет Эвергарден, которая назначена её личным инструктором. Поначалу и Вайолет не слишком радует Изабеллу...-Озвучки:
Многоголосый дубляж от Reanimedia-Информационные ссылки: AniDB || World Art || MAL || ANN-Качество: BDRip
Рип: [ReinForce]
Формат видео: MKV
Наличие линковки: нет
Тип релиза: без хардсаба
Видео: MPEG4 (AVC), 8 bit, 1920x804, 23.976 fps, 3788 Kbps
Аудио: JAP: DTS-HD Master Audio, 48.0 kHz, 2ch, 1356 Kbps
Аудио: RUS: AAC LC, 48.0 kHz, 2ch, 203 Kbps (внешним файлом)-

Актёры дубляжа

Людмила Гуськова
Маргарита Иванова-Донская
Вероника Одинг
Екатерина Марсальская
Михаил Каданин
Виктория Черникова
Василий Марков
Лилия Юникова

Инструкция по просмотру

* Чтобы смотреть с озвучкой, необходимо из папки Sounds переписать файлы в папку, где находятся видеофайлы. Далее, следует запустить плеер и переключиться на mka-дорожку. Подробное описание здесь

Скриншоты

Отличия от других раздач

https://rutracker.org/forum/viewtopic.php?t=5816661 [BDRip]

MediaInfo

Общее
Уникальный идентификатор : 33608965472853069303137056837662554682 (0x1948D9EED2C428C6BD74D25850663A3A)
Полное имя : E:\Раздачи\[ReinForce] Violet Evergarden Gaiden - Eien to Jidou Shuki Ningyou [804p x264 FLAC]\.SP\[ReinForce] Violet Evergarden Gaiden - Eien to Jidou Shuki Ningyou [804p x264 FLAC].mkv
Формат : Matroska
Версия формата : Version 4
Размер файла : 3,26 Гбайт
Продолжительность : 1 ч. 30 м.
Режим общего битрейта : Переменный
Общий поток : 5147 Кбит/сек
Дата кодирования : UTC 2020-03-19 15:00:48
Программа кодирования : mkvmerge v44.0.0 ('Domino') 64-bit
Библиотека кодирования : libebml v1.3.10 + libmatroska v1.5.2
Видео
Идентификатор : 1
Формат : AVC
Формат/Информация : Advanced Video Codec
Профиль формата : High@L4
Настройки формата : CABAC / 4 Ref Frames
Параметр CABAC формата : Да
Параметр RefFrames формата : 4 кадра
Идентификатор кодека : V_MPEG4/ISO/AVC
Продолжительность : 1 ч. 30 м.
Битрейт : 3788 Кбит/сек
Ширина : 1920 пикселей
Высота : 804 пикселя
Соотношение сторон : 2,40:1
Режим частоты кадров : Постоянный
Частота кадров : 23,976 (24000/1001) кадра/сек
Цветовое пространство : YUV
Субдискретизация насыщенности : 4:2:0
Битовая глубина : 8 бит
Тип развёртки : Прогрессивная
Бит/(Пиксели*Кадры) : 0.102
Размер потока : 2,40 Гбайт (74%)
Библиотека кодирования : x264 core 157
Настройки программы : opencl=1 / cabac=1 / ref=4 / deblock=1:-2:-2 / analyse=0x3:0x113 / me=umh / subme=9 / psy=1 / psy_rd=0.70:0.00 / mixed_ref=0 / me_range=32 / chroma_me=1 / trellis=2 / 8x8dct=1 / cqm=0 / deadzone=21,11 / fast_pskip=1 / chroma_qp_offset=-2 / threads=8 / lookahead_threads=1 / sliced_threads=0 / nr=0 / decimate=1 / interlaced=0 / bluray_compat=0 / constrained_intra=0 / bframes=9 / b_pyramid=2 / b_adapt=2 / b_bias=0 / direct=3 / weightb=1 / open_gop=0 / weightp=2 / keyint=250 / keyint_min=23 / scenecut=40 / intra_refresh=0 / rc_lookahead=40 / rc=crf / mbtree=1 / crf=16.0 / qcomp=0.70 / qpmin=10 / qpmax=20 / qpstep=4 / ip_ratio=1.40 / aq=1:1.00
Default : Да
Forced : Нет
Аудио
Идентификатор : 2
Формат : DTS XLL
Формат/Информация : Digital Theater Systems
Коммерческое название : DTS-HD Master Audio
Идентификатор кодека : A_DTS
Продолжительность : 1 ч. 30 м.
Вид битрейта : Переменный
Битрейт : 1356 Кбит/сек
Каналы : 2 канала
ChannelLayout : L R
Частота : 48,0 КГц
Частота кадров : 93,750 кадра/сек (512 SPF)
Битовая глубина : 24 бит
Метод сжатия : Без потерь
Размер потока : 879 Мбайт (26%)
Язык : Japanese
Default : Да
Forced : Нет
Меню
00:00:00.033 : en:Intro
00:03:20.550 : en:Part A
00:43:28.040 : en:Part B
01:25:44.490 : en:Ending Song ("Amy" by Minori Chihara)

avdump

File: E:\Раздачи\[ReinForce] Violet Evergarden Gaiden - Eien to Jidou Shuki Ningyou [804p x264 FLAC]\.SP\[ReinForce] Violet Evergarden Gaiden - Eien to Jidou Shuki Ningyou [804p x264 FLAC].mkv
Duration: 01:30:39 (5439.44)
Track #1: video
lang: und (1)
codc: V_MPEG4/ISO/AVC -> H264/AVC (22)
reso: 1920x804 (1920x804) -> Unknown (aka not common)
fram: 23.976 fps
rate: 3788 kbps (3788.32)
dura: 01:30:39 (5439.39)
size: 2.40 GB (2575768786)
Track #2: audio
lang: jpn -> Japanese (2)
codc: A_DTS -> DTS (13)
chan: 2 -> Stereo
samp: 48000 Hz
rate: 1357 kbps (1356.57)
dura: 01:30:39 (5439.42)
size: 879.64 MB (922372967)
Sizes: (check sanity)
disk: 3.26 GB (3499626625)
trac: 3.26 GB (3498141753) [based on track size]
bitr: 3.26 GB (3498136331) [based on bitrate]
tdif: 1.42 MB (1484872) 0.04%
bdif: 1.42 MB (1490293) 0.04%
Субтитры будут добавлены при появлении их в сети!
Внешняя дорожка дубляжа будет обновлена при появлении дисков Reanimedia.

Чтобы скачать этот контент, Вам необходимо:
1. Скачать и установить торрент-клиент [клик для Windows], (для мобильного найдите на Play Маркет).
2. Кликнуть по [Скачать]


Внимание.
Если проверка ВЫ НЕ РОБОТ - не работает, значит Вы используете устаревший браузер.
Установите актуальный браузер и повторно кликните по [Скачать]

Запрещён Яндекс браузер. Загрузка файлов им является ошибочной.
Безопасность: торрент-клиент разрешён АВ Касперского.

[asmlocator.ru].t717757.torrent 
Торрент: Зарегистрирован [ 2020-03-19 22:50 ] · BC7FBA3F115E11BB8EE29AB120C395328043FC39

Скачать .torrent

Скачать

5 KB

Статус: проверено
Скачан: 0 раз
Размер: 3.39 GB
terms.php
[Профиль] [ЛС]
Показать сообщения:    
Ответить на тему

Текущее время: 03-Июн 00:04

Часовой пояс: UTC ± 0



Вы не можете начинать темы
Вы не можете отвечать на сообщения
Вы не можете редактировать свои сообщения
Вы не можете удалять свои сообщения
Вы не можете голосовать в опросах
Вы не можете прикреплять файлы к сообщениям
Вы можете скачивать файлы
Верим фактам, а не вранью Путина! Факт, что Правительство ведёт Россию к истреблению.
Так как численность населения падает, даже не смотря на приток эмигрантов!
Русская нация вымирает и вырождается, смешиваясь с эмигрантами!
Факт, что военных и граждан предприятий заставляют голосовать за партию Единая Россия и Путина
ПОД СТРАХОМ УВОЛЬНЕНИЯ!
Нам не нужно Правительство, блокирующее личную жизнь, интернет, нарушающее сохранность данных.
Все эти действия финансируются за счёт народа!