Самая красивая девушка в мире / Das schönste Mädchen der Welt (Арон Леманн / Aron Lehmann) [2018, Германия, комедия, мелодрама, музыка, HDRip] DVO ("Синема УС") + Sub Rus + Original Deu

Ответить на тему
Статистика раздачи
Размер:  1.47 GB   |    Зарегистрирован:  2 месяца 16 дней   |    Скачан:  0 раз

Полного источника не было: Никогда

 
   
 
 
Автор Сообщение

star21 ®

Пол: Женский

Стаж: 4 года 6 месяцев

Сообщений: 551945

Откуда: Екатеринбург

Создавать темы 08-Мар-2020 12:25

[Цитировать]

Самая красивая девушка в мире / Das schönste Mädchen der Welt
Страна: Германия
Жанр: комедия, мелодрама, музыка
Год выпуска: 2018
Продолжительность: 01:42:52
Перевод: любительский (двухголосый закадровый) "Синема УС"
Субтитры: русские, на музыкальные фрагменты
Оригинальная аудиодорожка: немецкий
Реклама: нет
Режиссер: Арон Леманн / Aron Lehmann
В ролях: Аарон Хильмер, Рафаэль Шмаух, Фабио Джанфранческо, Мариан Медер, Анке Энгельке, Хейко Пинковски, Амели Элиза Клейн, Хайке Макач, Йоханнес Алльмайер, Зинье Ирслингер
Описание: Сирил - одаренный парень, он сочиняет тексты, участвует в музыкальных баттлах и мечтает стать звездой рэпа. Единственное, что сильно понижает его самооценку - нехилых размеров нос. Когда в классе появляется новая девочка Рокси, Сирил понимает, что они родственные души, но стесняется открыть свои чувства. Тем временем выясняется, что не только у Сирила есть виды на Рокси.

Сэмпл: http://multi-up.com/1257049
Качество видео: HDRip
Формат видео: AVI
Видео: 720x304 (2.37:1), 23.976 fps, XviD build 50 ~1643 kbps avg, 0.31 bit/pixel
Аудио 1: 48 kHz, AC3 Dolby Digital, 2 ch, ~192.00 kbps avg русская
Аудио 2: 48 kHz, AC3 Dolby Digital, 2 ch, ~192.00 kbps avg немецкая
Формат субтитров: softsub (SRT)

MediaInfo

GeneralComplete name                            : H:\temp\Das.schoenste.Maedchen.der.Welt.2018\Das.schoenste.Maedchen.der.Welt.2018.aviFormat                                   : AVIFormat/Info                              : Audio Video InterleaveFile size                                : 1.47 GiBDuration                                 : 1 h 42 minOverall bit rate                         : 2 045 kb/s
VideoID : 0Format : MPEG-4 VisualFormat profile : Advanced Simple@L5Format settings, BVOP : 1Format settings, QPel : NoFormat settings, GMC : No warppointsFormat settings, Matrix : Default (MPEG)Codec ID : XVIDCodec ID/Hint : XviDDuration : 1 h 42 minBit rate : 1 644 kb/sWidth : 720 pixelsHeight : 304 pixelsDisplay aspect ratio : 2.35:1Frame rate : 23.976 (24000/1001) FPSOriginal frame rate : 23.976 (23976/1000) FPSColor space : YUVChroma subsampling : 4:2:0Bit depth : 8 bitsScan type : ProgressiveCompression mode : LossyBits/(Pixel*Frame) : 0.313Stream size : 1.18 GiB (80%)Writing library : XviD 1.2.1 (UTC 2008-12-04)
Audio #1ID : 1Format : AC-3Format/Info : Audio Coding 3Mode extension : CM (complete main)Format settings, Endianness : BigCodec ID : 2000Duration : 1 h 42 minBit rate mode : ConstantBit rate : 192 kb/sChannel(s) : 2 channelsChannel positions : Front: L RSampling rate : 48.0 kHzFrame rate : 31.250 FPS (1536 spf)Bit depth : 16 bitsCompression mode : LossyStream size : 141 MiB (9%)Alignment : Aligned on interleavesInterleave, duration : 32 ms (0.77 video frame)
Audio #2ID : 2Format : AC-3Format/Info : Audio Coding 3Mode extension : CM (complete main)Format settings, Endianness : BigCodec ID : 2000Duration : 1 h 42 minBit rate mode : ConstantBit rate : 192 kb/sChannel(s) : 2 channelsChannel positions : Front: L RSampling rate : 48.0 kHzFrame rate : 31.250 FPS (1536 spf)Bit depth : 16 bitsCompression mode : LossyDelay relative to video : 32 msStream size : 141 MiB (9%)Alignment : Split accross interleavesInterleave, duration : 32 ms (0.77 video frame)

Скриншот c названием фильма

Скриншоты

Фрагмент субтитров

1
00:00:14,670 --> 00:00:17,340
Кто этот ублюдок? Подыхает, видимо, в Сайфере.
2
00:00:17,510 --> 00:00:20,340
Никто не спасет его. Спасти просто нереально.
3
00:00:20,510 --> 00:00:22,470
Этот слюнтяй хочет побаттлиться?
4
00:00:22,630 --> 00:00:25,690
Пусть баттлится, только потом пусть локти не кусает.
5
00:00:25,930 --> 00:00:28,100
Вижу, мамочка твоя наркотой приторговывает.
6
00:00:28,270 --> 00:00:30,800
Зато, когда члены раздавали, тебе достался самый короткий.
7
00:00:30,980 --> 00:00:33,600
Ни одну цыпочку ты еще не отчпокал.
8
00:00:33,860 --> 00:00:35,820
Твои волосы свисают с плеч, как дохлый хорек.
9
00:00:36,070 --> 00:00:38,600
Меня зовут МС Пушечка, знаешь, почему?
10
00:00:38,860 --> 00:00:41,870
Потому что я как пушечка, тебя и пристрелю.
11
00:00:42,030 --> 00:00:44,330
МС Пушечка, ты хоть знаешь, что такое стрелять?
12
00:00:44,570 --> 00:00:47,000
У твоей девушки течка, приходится ходить к ветеринару.
13
00:00:47,250 --> 00:00:49,630
Я дважды победитель, что вам мало, хотите хеттрик?
14
00:00:49,870 --> 00:00:52,130
Посмотри на себя, ты же похож на пуделя.
15
00:02:25,510 --> 00:02:27,350
Сюда вход разрешен лишь с 16 лет.
16
00:02:27,590 --> 00:02:30,570
А из твоих штанишек все еще торчат памперсы.
17
00:02:30,810 --> 00:02:33,100
Хватит диссить малышей.
18
00:02:33,270 --> 00:02:35,770
Дайте мне, наконец, моего одногодку.
19
00:02:36,480 --> 00:02:38,350
Так не пойдет, Гэндальфа же остановили.
20
00:02:38,610 --> 00:02:41,940
Малыш, моим родителям столько же, сколько твоим детям.

Чтобы скачать этот контент, Вам необходимо:
1. Скачать и установить торрент-клиент [клик для Windows], (для мобильного найдите на Play Маркет).
2. Кликнуть по [Скачать]


Внимание.
Если проверка ВЫ НЕ РОБОТ - не работает, значит Вы используете устаревший браузер.
Установите актуальный браузер и повторно кликните по [Скачать]

Запрещён Яндекс браузер. Загрузка файлов им является ошибочной.
Безопасность: торрент-клиент разрешён АВ Касперского.

[asmlocator.ru].t714913.torrent 
Торрент: Зарегистрирован [ 2020-03-08 12:25 ] · F5C7376575A6D1D05853E3B2CCFCDE59E4B12AE2

Скачать .torrent

Скачать

15 KB

Статус: проверено
Скачан: 0 раз
Размер: 1.47 GB
terms.php
[Профиль] [ЛС]
Показать сообщения:    
Ответить на тему

Текущее время: 25-Май 00:57

Часовой пояс: UTC ± 0



Вы не можете начинать темы
Вы не можете отвечать на сообщения
Вы не можете редактировать свои сообщения
Вы не можете удалять свои сообщения
Вы не можете голосовать в опросах
Вы не можете прикреплять файлы к сообщениям
Вы можете скачивать файлы
Верим фактам, а не вранью Путина! Факт, что Правительство ведёт Россию к истреблению.
Так как численность населения падает, даже не смотря на приток эмигрантов!
Русская нация вымирает и вырождается, смешиваясь с эмигрантами!
Факт, что военных и граждан предприятий заставляют голосовать за партию Единая Россия и Путина
ПОД СТРАХОМ УВОЛЬНЕНИЯ!
Нам не нужно Правительство, блокирующее личную жизнь, интернет, нарушающее сохранность данных.
Все эти действия финансируются за счёт народа!