Дети дороги / The Railway Children (Катрин Морсхэд / Catherine Morshead) [2000, Великобритания, семейный, WEB-DL 1080p] DVO (Екатеринбург Арт) + Sub Eng + Original Eng

Ответить на тему
Статистика раздачи
Размер:  8.16 GB   |    Зарегистрирован:  22 дня   |    Скачан:  0 раз

Полного источника не было: Никогда

 
   
 
 
Автор Сообщение

star21 ®

Пол: Женский

Стаж: 4 года 4 месяца

Сообщений: 551945

Откуда: Екатеринбург

Создавать темы 06-Мар-2020 00:55

[Цитировать]

Дети дороги / The Railway Children
Страна: Великобритания
Студия: Carlton Television
Жанр: семейный
Год выпуска: 2000
Продолжительность: 01:38:16
Перевод: Профессиональный (двухголосый закадровый) Екатеринбург Арт
Субтитры: английские
Оригинальная аудиодорожка: английский
Режиссер: Катрин Морсхэд / Catherine Morshead
В ролях: Джек Блюмено, Клер Томас, Джемима Рупер, Дженни Агаттер, Майкл Кичен, Вэл Минифи, Мелани Кларк Пуллен, Джорджи Глен, Грегор Фишер, Аманда Уокер
Описание: После того как их отца увели из дома два таинственных джентльмена, в жизни Роберты, Филлис и Питера все изменилось. Продав пожитки, мать перевезла детишек из большой лондонской квартиры в «милый маленький домик в деревне». Оставшись без прислуги, дети учатся самостоятельно заботиться о себе. А все свободное время они проводят возле железной дороги, где их ждут невероятные приключения, благодаря которым, а также счастливому случаю и ежедневному экспрессу «Зеленый дракон», дети знакомятся со Старым Джентльменом, знающим тайну исчезновения отца.
Доп. информация: На DVD русская дорога "дутая" - речь во всех каналах..
Кинопоиск - IMDb
Sample
Тип релиза: WEB-DL 1080p - AMZN
Контейнер: MKV
Видео: MPEG4 AVC Video, H264, 16:9, 1920x1080, 25 fps, 11.2 Mbps
Аудио: Russian (AC3, 2 ch, 192 kbps, 16 bits, 48.0 KHz) - DVO
Аудио 2: English (E-AC3, 2 ch, 224 kbps, 16 bits, 48.0 KHz) - оригинал
Формат субтитров: softsub (SRT)

MediaInfo

General
Unique ID : 211469183943591823180736120299759705486 (0x9F177BBDF4152B3BBA2EC5DAA0D19D8E)
Complete name : J:\The.Railway.Children.2000.AMZN.WEB-DL.1080p.mkv
Format : Matroska
Format version : Version 4 / Version 2
File size : 8.16 GiB
Duration : 1 h 38 min
Overall bit rate : 11.9 Mb/s
Encoded date : UTC 2020-01-17 03:43:21
Writing application : mkvmerge v6.1.0 ('Old Devil') built on Mar 2 2013 14:32:37
Writing library : libebml v1.3.0 + libmatroska v1.4.0
Video
ID : 1
Format : AVC
Format/Info : Advanced Video Codec
Format profile : High@L4
Format settings : CABAC / 4 Ref Frames
Format settings, CABAC : Yes
Format settings, ReFrames : 4 frames
Codec ID : V_MPEG4/ISO/AVC
Duration : 1 h 38 min
Bit rate : 11.2 Mb/s
Width : 1 920 pixels
Height : 1 080 pixels
Display aspect ratio : 16:9
Frame rate mode : Constant
Frame rate : 25.000 FPS
Color space : YUV
Chroma subsampling : 4:2:0
Bit depth : 8 bits
Scan type : Progressive
Bits/(Pixel*Frame) : 0.217
Stream size : 7.71 GiB (95%)
Language : English
Default : Yes
Forced : No
Color range : Limited
Color primaries : BT.709
Transfer characteristics : BT.709
Matrix coefficients : BT.709
Audio #1
ID : 2
Format : AC-3
Format/Info : Audio Coding 3
Codec ID : A_AC3
Duration : 1 h 38 min
Bit rate mode : Constant
Bit rate : 192 kb/s
Channel(s) : 2 channels
Channel positions : Front: L R
Sampling rate : 48.0 kHz
Frame rate : 31.250 FPS (1536 SPF)
Bit depth : 16 bits
Compression mode : Lossy
Stream size : 135 MiB (2%)
Language : Russian
Service kind : Complete Main
Default : Yes
Forced : No
Audio #2
ID : 3
Format : E-AC-3
Format/Info : Enhanced Audio Coding 3
Codec ID : A_EAC3
Duration : 1 h 38 min
Bit rate mode : Constant
Bit rate : 224 kb/s
Channel(s) : 2 channels
Channel positions : Front: L R
Sampling rate : 48.0 kHz
Frame rate : 187.500 FPS (256 SPF)
Compression mode : Lossy
Stream size : 157 MiB (2%)
Language : English
Service kind : Complete Main
Default : No
Forced : No
Text
ID : 4
Format : UTF-8
Codec ID : S_TEXT/UTF8
Codec ID/Info : UTF-8 Plain Text
Title : SDH
Language : English
Default : No
Forced : No

Скриншоты


Чтобы скачать этот контент, Вам необходимо:
1. Скачать и установить торрент-клиент [клик для Windows], (для мобильного найдите на Play Маркет).
2. Кликнуть по [Скачать]


Внимание.
Если проверка ВЫ НЕ РОБОТ - не работает, значит Вы используете устаревший браузер.
Установите актуальный браузер и повторно кликните по [Скачать]

Запрещён Яндекс браузер. Загрузка файлов им является ошибочной.
Безопасность: торрент-клиент разрешён АВ Касперского.

[asmlocator.ru].t714062.torrent 
Торрент: Зарегистрирован [ 2020-03-06 00:55 ] · D02AA3134A7A1DEF1D1E4137EB922E9C55B14AFB

Скачать .torrent

Скачать

41 KB

Статус: проверено
Скачан: 0 раз
Размер: 8.16 GB
terms.php
[Профиль] [ЛС]
Показать сообщения:    
Ответить на тему

Текущее время: 28-Мар 09:28

Часовой пояс: UTC ± 0



Вы не можете начинать темы
Вы не можете отвечать на сообщения
Вы не можете редактировать свои сообщения
Вы не можете удалять свои сообщения
Вы не можете голосовать в опросах
Вы не можете прикреплять файлы к сообщениям
Вы можете скачивать файлы
Верим фактам, а не вранью Путина! Факт, что Правительство ведёт Россию к истреблению.
Так как численность населения падает, даже не смотря на приток эмигрантов!
Русская нация вымирает и вырождается, смешиваясь с эмигрантами!
Факт, что военных и граждан предприятий заставляют голосовать за партию Единая Россия и Путина
ПОД СТРАХОМ УВОЛЬНЕНИЯ!
Нам не нужно Правительство, блокирующее личную жизнь, интернет, нарушающее сохранность данных.
Все эти действия финансируются за счёт народа!