Может ли наука сделать меня лучше? (1-2 серии из 2) / Can Science Make Me Perfect? (Peter Chinn / Питер Чинн) [2018, Документальный, научно-популярный, DVB] DVO

Ответить на тему
Статистика раздачи
Размер:  1.29 GB   |    Зарегистрирован:  6 дней   |    Скачан:  0 раз

Полного источника не было: Никогда

 
   
 
 
Автор Сообщение

star21 ®

Пол: Женский

Стаж: 4 года 3 месяца

Сообщений: 551946

Откуда: Екатеринбург

Создавать темы 17-Фев-2020 00:30

[Цитировать]

Может ли наука сделать меня лучше? / Can Science Make Me Perfect? Дата/Год выпуска: 2018
Страна: Великобритания
Жанр: Документальный, научно-популярный
Продолжительность: 2 x ~ 00:48:32
Перевод: Профессиональный (двухголосый закадровый)
Доп. инфо о переводе: Видеофильм ТВ
Режиссер: Peter Chinn / Питер ЧиннТелеканал: Наука
Описание: Профессор Алиса Робертс восстанавливает свое собственное тело с нуля, исправляя ошибки, оставленные эволюцией, и добавляя адаптации из мира природы, чтобы создать модель идеального человека в натуральную величину.imdbСэмпл: https://www.sendspace.com/file/jvhbvbкачество: DVB
формат: TS
Видео: 720x576 (16:9) AVC (H.264) Main@L3.0, ~ 1694 kbps, 25fps
Аудио: Русский 48 kHz, MPEG Layer 2, 2 ch, ~192.00 kbps avg

Список выпусков/серий

01. Необычный эксперимент
В первой части фильма Элис изучает животный мир и переосмысливает наше тело, преодолевая тысячелетия эволюции.02. Новое тело для Элис
Во втором эпизоде Элис с помощью CGI-графики, одного из лучших в мире виртуальных скульпторов и модельера представляет идеальную версию самой себя.

MediaInfo

Complete name               : F:\Наладки\SD-фильмы\Может ли наука сделать меня лучше\01. Необычный эксперимент.tsFormat                      : MPEG-TSFile size                   : 689 MiBDuration                    : 48 min 32 sOverall bit rate mode       : VariableOverall bit rate            : 1 986 kb/sVideoID                          : 401 (0x191)Menu ID                     : 2608 (0xA30)Format                      : AVCFormat/Info                 : Advanced Video CodecFormat profile              : Main@L3Format settings             : CABAC / 4 Ref FramesFormat settings, CABAC      : YesFormat settings, Reference  : 4 framesCodec ID                    : 27Duration                    : 48 min 32 sBit rate                    : 1 694 kb/sWidth                       : 720 pixelsHeight                      : 576 pixelsDisplay aspect ratio        : 16:9Frame rate                  : 25.000 FPSStandard                    : ComponentColor space                 : YUVChroma subsampling          : 4:2:0Bit depth                   : 8 bitsScan type                   : InterlacedScan type, store method     : Separated fieldsScan order                  : Top Field FirstBits/(Pixel*Frame)          : 0.163Stream size                 : 588 MiB (85%)Color range                 : LimitedColor primaries             : BT.601 PALTransfer characteristics    : BT.470 System B/GMatrix coefficients         : BT.470 System B/GAudioID                          : 402 (0x192)Menu ID                     : 2608 (0xA30)Format                      : MPEG AudioFormat version              : Version 1Format profile              : Layer 2Codec ID                    : 3Duration                    : 48 min 31 sBit rate mode               : ConstantBit rate                    : 192 kb/sChannel(s)                  : 2 channelsSampling rate               : 48.0 kHzFrame rate                  : 41.667 FPS (1152 SPF)Compression mode            : LossyStream size                 : 66.6 MiB (10%)Language                    : RussianComplete name               : F:\Наладки\SD-фильмы\Может ли наука сделать меня лучше\02.  Новое тело для Элис.tsFormat                      : MPEG-TSFile size                   : 635 MiBDuration                    : 46 min 39 sOverall bit rate mode       : VariableOverall bit rate            : 1 903 kb/sVideoID                          : 401 (0x191)Menu ID                     : 2608 (0xA30)Format                      : AVCFormat/Info                 : Advanced Video CodecFormat profile              : Main@L3Format settings             : CABAC / 4 Ref FramesFormat settings, CABAC      : YesFormat settings, Reference  : 4 framesCodec ID                    : 27Duration                    : 46 min 39 sBit rate                    : 1 615 kb/sWidth                       : 720 pixelsHeight                      : 576 pixelsDisplay aspect ratio        : 16:9Frame rate                  : 25.000 FPSStandard                    : ComponentColor space                 : YUVChroma subsampling          : 4:2:0Bit depth                   : 8 bitsScan type                   : InterlacedScan type, store method     : Separated fieldsScan order                  : Top Field FirstBits/(Pixel*Frame)          : 0.156Stream size                 : 539 MiB (85%)Color range                 : LimitedColor primaries             : BT.601 PALTransfer characteristics    : BT.470 System B/GMatrix coefficients         : BT.470 System B/GAudioID                          : 402 (0x192)Menu ID                     : 2608 (0xA30)Format                      : MPEG AudioFormat version              : Version 1Format profile              : Layer 2Codec ID                    : 3Duration                    : 46 min 39 sBit rate mode               : ConstantBit rate                    : 192 kb/sChannel(s)                  : 2 channelsSampling rate               : 48.0 kHzFrame rate                  : 41.667 FPS (1152 SPF)Compression mode            : LossyDelay relative to video     : -40 msStream size                 : 64.1 MiB (10%)Language                    : Russian

Скриншоты 1047x576

Дополнительная информация

Запись DVB в формате "TS" - прямая потоковая запись. Без компрессии и конвертации. Обрезка рекламы (начало, конец, середина) производилась программой VideoReDo TVSuite V5

Чтобы скачать этот контент, Вам необходимо:
1. Скачать и установить торрент-клиент [клик для Windows], (для мобильного найдите на Play Маркет).
2. Кликнуть по [Скачать]


Внимание.
Если проверка ВЫ НЕ РОБОТ - не работает, значит Вы используете устаревший браузер.
Установите актуальный браузер и повторно кликните по [Скачать]
Безопасность: торрент-клиент разрешён АВ Касперского.

[asmlocator.ru].t709970.torrent 
Торрент: Зарегистрирован [ 2020-02-17 00:30 ] · 054469AC2E45539D33F621CB57E58A1D010B3011

Скачать .torrent

Скачать

14 KB

Статус: проверено
Скачан: 0 раз
Размер: 1.29 GB
terms.php
[Профиль] [ЛС]
Показать сообщения:    
Ответить на тему

Текущее время: 23-Фев 23:38

Часовой пояс: UTC ± 0



Вы не можете начинать темы
Вы не можете отвечать на сообщения
Вы не можете редактировать свои сообщения
Вы не можете удалять свои сообщения
Вы не можете голосовать в опросах
Вы не можете прикреплять файлы к сообщениям
Вы можете скачивать файлы
Верим фактам, а не вранью Путина! Факт, что Правительство ведёт Россию к истреблению.
Так как численность населения падает, даже не смотря на приток эмигрантов!
Русская нация вымирает и вырождается, смешиваясь с эмигрантами!
Факт, что военных и граждан предприятий заставляют голосовать за партию Единая Россия и Путина
ПОД СТРАХОМ УВОЛЬНЕНИЯ!
Нам не нужно Правительство, блокирующее личную жизнь, интернет, нарушающее сохранность данных.
Все эти действия финансируются за счёт народа!