Игорь Сикорский. Витязь неба (Алексей Денисов) [2012, исторический, SATRip]

Ответить на тему
Статистика раздачи
Размер:  528 MB   |    Зарегистрирован:  6 дней   |    Скачан:  0 раз

Полного источника не было: Никогда

 
   
 
 
Автор Сообщение

star21 ®

Пол: Женский

Стаж: 4 года 3 месяца

Сообщений: 551946

Откуда: Екатеринбург

Создавать темы 17-Фев-2020 00:30

[Цитировать]

Игорь Сикорский. Витязь неба Дата/Год выпуска: 2012
Страна: Россия
Жанр: исторический
Продолжительность: 00:43:49
Перевод: Не требуется
Русские субтитры: нет
Оригинальная аудиодорожка: русский
Режиссер: Алексей ДенисовОписание: Сентябрь 1959 года. Тысячи американцев с энтузиазмом приветствуют руководителя КПСС и советского государства - Никиту Сергеевича Хрущева. Он стал первым советским лидером, посетившим цитадель мирового капитализма. В один из дней Эйзенхауэр предложил Никите Сергеевичу прокатиться на его президентском вертолете. Надежность, комфорт и возможности этой машины настолько поразили главу советского государства, что он пожелал иметь точно такой же вертолет. В марте 1961 года два президентских вертолета прибыли в Москву. Но полетать на них Хрущеву так и не удалось. Обе машины были переданы в соответствующие институты, где их разобрали по частям для изучения заокеанских технических секретов. По политическим соображениям было решено, что генеральный секретарь ЦК КПСС может летать только на советских вертолетах. Советские люди так и не узнали, что вертолет американского президента, который так понравился Хрущеву, был создан нашим соотечественником - гениальным русским конструктором Игорем Ивановичем Сикорским. В 1918 году он был вынужден покинуть Родину, спасаясь от "красного террора". Оказавшись в Америке, русский конструктор разработает и построит первый в мире одновинтовой вертолет, который станет образцом для всех подобных машин на нашей планете. Гениальный русский конструктор Игорь Сикорский стал основателем самой мощной на сегодня в мире американской вертолетной индустрии.
По разным данным, только в XX веке одновинтовыми вертолетами, созданными по схеме Сикорского, в мире были спасены более миллиона человеческих жизней. В фильме будут показаны уникальные кадры кинохроники из архивов Соединенных Штатов. Уникальные эпизоды из жизни Игоря Ивановича Сикорского российский зритель увидит впервые.качество: SATRip
формат: AVI
Видео: MPEG4, DivX 5, 720x400 (16:9), 25.000 fps, 1 547 Kbps (0.215 bit/pixel)
Аудио: MP3, 44.1 KHz, 2 ch, 128 Kbps, CBR

MediaInfo

GeneralComplete name                            : C:\Users\User\Downloads\Игорь Сикорский. Витязь неба.aviFormat                                   : AVIFormat/Info                              : Audio Video InterleaveFile size                                : 528 MiBDuration                                 : 43mn 49sOverall bit rate                         : 1 684 KbpsVideoID                                       : 0Format                                   : MPEG-4 VisualFormat settings, BVOP                    : 1Format settings, QPel                    : NoFormat settings, GMC                     : No warppointsFormat settings, Matrix                  : Default (H.263)Codec ID                                 : DX50Codec ID/Hint                            : DivX 5Duration                                 : 43mn 49sBit rate                                 : 1 547 KbpsWidth                                    : 720 pixelsHeight                                   : 400 pixelsDisplay aspect ratio                     : 16:9Frame rate                               : 25.000 fpsColor space                              : YUVChroma subsampling                       : 4:2:0Bit depth                                : 8 bitsScan type                                : ProgressiveCompression mode                         : LossyBits/(Pixel*Frame)                       : 0.215Stream size                              : 485 MiB (92%)Writing library                          : DivX 3013AudioID                                       : 1Format                                   : MPEG AudioFormat version                           : Version 1Format profile                           : Layer 3Codec ID                                 : 55Codec ID/Hint                            : MP3Duration                                 : 43mn 49sBit rate mode                            : ConstantBit rate                                 : 128 KbpsChannel(s)                               : 2 channelsSampling rate                            : 44.1 KHzCompression mode                         : LossyDelay relative to video                  : 7msStream size                              : 40.1 MiB (8%)Alignment                                : Split accross interleavesInterleave, duration                     : 40 ms (1.00 video frame)Interleave, preload duration             : 500 ms

Скриншоты

Чтобы скачать этот контент, Вам необходимо:
1. Скачать и установить торрент-клиент [клик для Windows], (для мобильного найдите на Play Маркет).
2. Кликнуть по [Скачать]


Внимание.
Если проверка ВЫ НЕ РОБОТ - не работает, значит Вы используете устаревший браузер.
Установите актуальный браузер и повторно кликните по [Скачать]
Безопасность: торрент-клиент разрешён АВ Касперского.

[asmlocator.ru].t709959.torrent 
Торрент: Зарегистрирован [ 2020-02-17 00:30 ] · 5114F97F833E6ABB2FF71A45C65D13DEC83B1DDE

Скачать .torrent

Скачать

11 KB

Статус: проверено
Скачан: 0 раз
Размер: 528 MB
terms.php
[Профиль] [ЛС]
Показать сообщения:    
Ответить на тему

Текущее время: 23-Фев 23:53

Часовой пояс: UTC ± 0



Вы не можете начинать темы
Вы не можете отвечать на сообщения
Вы не можете редактировать свои сообщения
Вы не можете удалять свои сообщения
Вы не можете голосовать в опросах
Вы не можете прикреплять файлы к сообщениям
Вы можете скачивать файлы
Верим фактам, а не вранью Путина! Факт, что Правительство ведёт Россию к истреблению.
Так как численность населения падает, даже не смотря на приток эмигрантов!
Русская нация вымирает и вырождается, смешиваясь с эмигрантами!
Факт, что военных и граждан предприятий заставляют голосовать за партию Единая Россия и Путина
ПОД СТРАХОМ УВОЛЬНЕНИЯ!
Нам не нужно Правительство, блокирующее личную жизнь, интернет, нарушающее сохранность данных.
Все эти действия финансируются за счёт народа!