Воспоминания о солдате / Воспоминания солдата / Soldier\'s mementos / Ojanggunui baltop (Ким Джэ-хан / Kim Jae-han) [2017, Южная Корея, Драма, военный, история, WEBRip] DVO (СВ-Дубль)

Ответить на тему
Статистика раздачи
Размер:  1.37 GB   |    Зарегистрирован:  8 дней   |    Скачан:  0 раз

Полного источника не было: Никогда

 
   
 
 
Автор Сообщение

star21 ®

Пол: Женский

Стаж: 4 года 3 месяца

Сообщений: 551946

Откуда: Екатеринбург

Создавать темы 15-Фев-2020 04:08

[Цитировать]

Воспоминания о солдате / Воспоминания солдата
Soldier's mementos / Ojanggunui baltop
Страна: Южная Корея
Жанр: Драма, военный, история
Год выпуска: 2017
Продолжительность: 01:39:08Перевод: Профессиональный (двухголосый закадровый) | СВ-Дубль
Субтитры: нет
Оригинальная аудиодорожка: нетРежиссер: Ким Джэ-хан / Kim Jae-hanВ ролях:
Мэн Сэ-чхан, Чо Хе-джон, Мён Ге-нам, Со Гап-сук, Ко Гон-хан, Чон Гё-ун, Ли Сан-хун, Ли Джи-вон, Хан Чхан-хён, Пак ХунОписание:
Юный Чонган из корейской глубинки мечтает всю жизнь проработать на ферме и жениться на соседской девушке. Его любящая мать хочет для него великой судьбы, подвигов и военной славы. Вопреки своему желанию Чонган попадает в ряды солдат и в пекло войны. Фильм вошел в конкурсную программу 40-го Московского кинофестиваля.| Исходник для рипа WEBRip (1080p), за который спасибо G00ba | Скачать сэмпл | IMDb | КиноПоиск |
ММКФ, 2018 год
Номинации:
- Приз за лучший фильм - Золотой «Святой Георгий»Качество видео: WEBRip
Формат видео: AVIВидео: 720x304 (2.35:1), 23,976 fps, XviD build 67 ~1773 kbps avg, 0.338 bit/pixel
Аудио: 48 kHz, AC3 Dolby Digital, 2/0 (L,R) ch, ~192 kbps | Профессиональный двухголосый (СВ-Дубль)

MediaInfo

Vospominaniya.o.Soldate.2017.WEBRip.aviФормат                                   : AVIФормат/Информация                        : Audio Video InterleaveРазмер файла                             : 1,37 ГбайтПродолжительность                        : 1 ч. 39 м.Общий поток                              : 1974 Кбит/секНазвание фильма                          : Воспоминания о солдате / Ojanggunui baltop (2017) WEBRipРежиссёр                                 : Ким Джэ-хан / Kim Jae-hanЖанр                                     : Драма, военный, историяПрограмма кодирования                    : VirtualDubMod 1.5.10.2 (build 2542/release)Формат оригинала/Имя                     : Художественный фильмАвторское право                          : Южная КореяПримечание                               : Rip by vitolinformВидеоИдентификатор                            : 0Формат                                   : MPEG-4 VisualПрофиль формата                          : Advanced Simple@L5Настройки формата                        : BVOP2Параметр BVOP формата                    : 2Параметр QPel формата                    : НетПараметр GMC формата                     : Без точки переходаПараметр матрицы формата                 : Default (MPEG)Идентификатор кодека                     : XVIDИдентификатор кодека/Подсказка           : XviDПродолжительность                        : 1 ч. 39 м.Битрейт                                  : 1773 Кбит/секШирина                                   : 720 пикселейВысота                                   : 304 пикселяСоотношение сторон                       : 2,35:1Частота кадров                           : 23,976 (24000/1001) кадра/секЧастота кадров в оригинале               : 23,976 (23976/1000) кадра/секЦветовое пространство                    : YUVСубдискретизация насыщенности            : 4:2:0Битовая глубина                          : 8 битТип развёртки                            : ПрогрессивнаяМетод сжатия                             : С потерямиБит/(Пиксели*Кадры)                      : 0.338Размер потока                            : 1,23 Гбайт (90%)Библиотека кодирования                   : XviD 67АудиоИдентификатор                            : 1Формат                                   : AC-3Формат/Информация                        : Audio Coding 3Коммерческое название                    : Dolby DigitalИдентификатор кодека                     : 2000Продолжительность                        : 1 ч. 39 м.Вид битрейта                             : ПостоянныйБитрейт                                  : 192 Кбит/секКаналы                                   : 2 каналаChannelLayout                            : L RЧастота                                  : 48,0 КГцЧастота кадров                           : 31,250 кадров/сек (1536 SPF)Битовая глубина                          : 16 битМетод сжатия                             : С потерямиРазмер потока                            : 136 Мбайт (10%)Выравнивание                             : Разделение по промежуткамПродолжительность промежутка             : 42  мс. (1,00 видеокадр)Время предзагрузки промежутка            : 500  мс.Заголовок                                : Russian (DVO СВ-Дубль)ServiceKind/String                       : Complete Main

Скриншот c названием фильма

Скриншоты

Чтобы скачать этот контент, Вам необходимо:
1. Скачать и установить торрент-клиент [клик для Windows], (для мобильного найдите на Play Маркет).
2. Кликнуть по [Скачать]


Внимание.
Если проверка ВЫ НЕ РОБОТ - не работает, значит Вы используете устаревший браузер.
Установите актуальный браузер и повторно кликните по [Скачать]
Безопасность: торрент-клиент разрешён АВ Касперского.

[asmlocator.ru].t709671.torrent 
Торрент: Зарегистрирован [ 2020-02-15 04:07 ] · FBA4E2F6B4EB6EDC880C30337730E3378E39A28A

Скачать .torrent

Скачать

14 KB

Статус: проверено
Скачан: 0 раз
Размер: 1.37 GB
terms.php
[Профиль] [ЛС]
Показать сообщения:    
Ответить на тему

Текущее время: 23-Фев 23:33

Часовой пояс: UTC ± 0



Вы не можете начинать темы
Вы не можете отвечать на сообщения
Вы не можете редактировать свои сообщения
Вы не можете удалять свои сообщения
Вы не можете голосовать в опросах
Вы не можете прикреплять файлы к сообщениям
Вы можете скачивать файлы
Верим фактам, а не вранью Путина! Факт, что Правительство ведёт Россию к истреблению.
Так как численность населения падает, даже не смотря на приток эмигрантов!
Русская нация вымирает и вырождается, смешиваясь с эмигрантами!
Факт, что военных и граждан предприятий заставляют голосовать за партию Единая Россия и Путина
ПОД СТРАХОМ УВОЛЬНЕНИЯ!
Нам не нужно Правительство, блокирующее личную жизнь, интернет, нарушающее сохранность данных.
Все эти действия финансируются за счёт народа!