(Classical harpsichord solo) J.S.Bach - The Toccatas: BWV 910-916 (Mahan Esfahani) - 2019, FLAC (image+.cue) lossless

Ответить на тему
Статистика раздачи
Размер:  446 MB   |    Зарегистрирован:  1 месяц 6 дней   |    Скачан:  0 раз

Полного источника не было: Никогда

 
   
 
 
Автор Сообщение

star21 ®

Пол: Женский

Стаж: 4 года

Сообщений: 551946

Откуда: Екатеринбург

Создавать темы 16-Окт-2019 17:05

[Цитировать]

J.S.Bach - The Toccatas (Mahan Esfahani) Жанр: Classical harpsichord solo
Страна-производитель диска: Made in France
Год издания диска: 2019
Издатель (лейбл): Hyperion
Номер по каталогу: CDA68244
Дата записи: 2018
Аудиокодек: FLAC
Тип рипа: image+.cue
Битрейт аудио: lossless
Продолжительность: 01:16:48
Источник: релизер
сайт-источник/ник/другое: basso priofundo, подарок; Caterina Sforza - доп. сканы
Наличие сканов в содержимом раздачи: да, web pdf буклетТреклист:1. Toccata in F-sharp Minor, BWV910
2. Toccata in C Minor, BWV911
3. Toccata in D Major, BWV912
4. Toccata in D Minor, BWV913
5. Toccata in E Minor, BWV914
6. Toccata in G Minor, BWV915
7. Toccata in G Major, BWV916

Исполнители

Johann Sebastian Bach (1685-1750)Toccata In F Sharp Minor, BWV 910Toccata In C Minor, BWV 911Toccata In D, BWV 912Toccata In D Minor, BWV 913Toccata In E Minor, BWV 914Toccata In G Minor, BWV 915Toccata In G, BWV 916Mahan Esfahani (harpsichord)Recording Date: June 20, 2018 - June 23, 2018Recording Location: Parish Church of St. John the Baptist, Loughton, EssexRelease Date: August 2, 2019

Лог создания рипа

Exact Audio Copy V1.3 from 2. September 2016EAC extraction logfile from 28. August 2019, 5:48Mahan Esfahani / Bach - The ToccatasUsed drive  : HL-DT-STBD-RE  WH16NS40   Adapter: 1  ID: 0Read mode               : SecureUtilize accurate stream : YesDefeat audio cache      : YesMake use of C2 pointers : NoRead offset correction                      : 6Overread into Lead-In and Lead-Out          : NoFill up missing offset samples with silence : YesDelete leading and trailing silent blocks   : NoNull samples used in CRC calculations       : YesUsed interface                              : Native Win32 interface for Win NT & 2000Used output format              : User Defined EncoderSelected bitrate                : 1024 kBit/sQuality                         : HighAdd ID3 tag                     : NoCommand line compressor         : C:\Program Files (x86)\Exact Audio Copy\FLAC\FLAC.EXEAdditional command line options : -6 -V -T "ARTIST=%artist%" -T "TITLE=%title%" -T "ALBUM=%albumtitle%" -T "DATE=%year%" -T "TRACKNUMBER=%tracknr%" -T "GENRE=%genre%" -T "COMMENT=%comment%" -T "BAND=%albuminterpret%" -T "ALBUMARTIST=%albuminterpret%" -T "COMPOSER=%composer%" %haslyrics%--tag-from-file=LYRICS="%lyricsfile%"%haslyrics% -T "DISCNUMBER=%cdnumber%" -T "TOTALDISCS=%totalcds%" -T "TOTALTRACKS=%numtracks%" %hascover%--picture="%coverfile%"%hascover% %source% -o %dest%TOC of the extracted CD     Track |   Start  |  Length  | Start sector | End sector    ---------------------------------------------------------        1  |  0:00.00 | 11:13.70 |         0    |    50544        2  | 11:13.70 | 12:04.48 |     50545    |   104892        3  | 23:18.43 | 12:32.64 |    104893    |   161356        4  | 35:51.32 | 14:21.47 |    161357    |   225978        5  | 50:13.04 |  8:04.23 |    225979    |   262301        6  | 58:17.27 | 10:07.47 |    262302    |   307873        7  | 68:24.74 |  8:27.60 |    307874    |   345958Range status and errorsSelected range     Filename C:\Users\Grant\Desktop\Mahan Esfahani - Bach - The Toccatas.wav     Peak level 93.8 %     Extraction speed 8.5 X     Range quality 99.9 %     Test CRC 79F17D90     Copy CRC 79F17D90     Copy OKNo errors occurredAccurateRip summaryTrack  1  not present in databaseTrack  2  not present in databaseTrack  3  not present in databaseTrack  4  not present in databaseTrack  5  not present in databaseTrack  6  not present in databaseTrack  7  not present in databaseNone of the tracks are present in the AccurateRip databaseEnd of status report---- CUETools DB Plugin V2.1.6[CTDB TOCID: Q2J0Lr1_.0Z4XvLSrIwoNZHgIX4-] foundSubmit result: Q2J0Lr1_.0Z4XvLSrIwoNZHgIX4- has been confirmedTrack | CTDB Status  1   | (5/5) Accurately ripped  2   | (5/5) Accurately ripped  3   | (5/5) Accurately ripped  4   | (5/5) Accurately ripped  5   | (5/5) Accurately ripped  6   | (5/5) Accurately ripped  7   | (5/5) Accurately ripped==== Log checksum 3408B6961F61E63D65C986C78545A09E928F2AEF8C2036925D69F1A2E1DE60B7 ====

Содержание индексной карты (.CUE)

REM GENRE BaroqueREM DATE 2018REM DISCID 51120407REM COMMENT "ExactAudioCopy v1.3"PERFORMER "Mahan Esfahani (harpsichord)"TITLE "Bach - The Toccatas"REM COMPOSER "Johann Sebastian Bach (1685-1750)"FILE "Mahan Esfahani - Bach - The Toccatas.flac" WAVE  TRACK 01 AUDIO    TITLE "Toccata in F sharp minor, BWV 910"    PERFORMER "Mahan Esfahani"    REM COMPOSER "Johann Sebastian Bach"    INDEX 01 00:00:00  TRACK 02 AUDIO    TITLE "Toccata in C minor, BWV 911"    PERFORMER "Mahan Esfahani"    REM COMPOSER "Johann Sebastian Bach"    INDEX 01 11:13:70  TRACK 03 AUDIO    TITLE "Toccata in D, BWV 912"    PERFORMER "Mahan Esfahani"    REM COMPOSER "Johann Sebastian Bach"    INDEX 01 23:18:43  TRACK 04 AUDIO    TITLE "Toccata in D minor, BWV 913"    PERFORMER "Mahan Esfahani"    REM COMPOSER "Johann Sebastian Bach"    INDEX 01 35:51:32  TRACK 05 AUDIO    TITLE "Toccata in E minor, BWV 914"    PERFORMER "Mahan Esfahani"    REM COMPOSER "Johann Sebastian Bach"    INDEX 01 50:13:04  TRACK 06 AUDIO    TITLE "Toccata in G minor, BWV 915"    PERFORMER "Mahan Esfahani"    REM COMPOSER "Johann Sebastian Bach"    INDEX 01 58:17:27  TRACK 07 AUDIO    TITLE "Toccata in G, BWV 916"    PERFORMER "Mahan Esfahani"    REM COMPOSER "Johann Sebastian Bach"    INDEX 01 68:24:74

Review

AllMusic Review by James Manheim  [-]Bach is generally thought of as a musical conservative who wrote his late masterpieces in a style that was already antiquated. However, during his youth he wrote, like many other composers, some wildly experimental music. A toccata is often connected to a fugue, in Bach's music and that of others, but these pieces are freestanding. Bach wrote them during his period working for the Weimar court, and they're so unlike the rest of his music that they have been rarely performed. They may have been written for a clavichord, which would intensify their inward spirit, but they are quite virtuosic. The brilliant harpsichord renditions here by Mahan Esfahani are more than defensible. The toccatas transfer the multi-sectional structure of earlier Baroque ensembles to the keyboard and add chromaticism liberally. The result is dark, brooding, volatile music that emerges from time to time into the light. You could sample anywhere except for the final toccata, which is not like the others: it is a three-section piece resembling the Italian Concerto for keyboard, BWV 971. Try the nearly 15-minute Toccata in D minor, BWV 913, which truly goes all over the map. CD buyers will benefit from an essay by Esfahani that delves further into this strange music. Highly recommended.

Чтобы скачать этот контент, Вам необходимо:
1. Скачать и установить торрент-клиент [клик для Windows], (для мобильного найдите на Play Маркет).
2. Кликнуть по [Скачать]


Внимание.
Если проверка ВЫ НЕ РОБОТ - не работает, значит Вы используете устаревший браузер.
Установите актуальный браузер и повторно кликните по [Скачать]
Безопасность: торрент-клиент разрешён АВ Касперского.

[asmlocator.ru].t671637.torrent 
Торрент: Зарегистрирован [ 2019-10-16 17:05 ] · 6989DB8124B4A44991BCE4A2E77AF5B156893CF4

Скачать .torrent

Скачать

18 KB

Статус: проверено
Скачан: 0 раз
Размер: 446 MB
terms.php
[Профиль] [ЛС]
Показать сообщения:    
Ответить на тему

Текущее время: 23-Ноя 02:49

Часовой пояс: UTC ± 0



Вы не можете начинать темы
Вы не можете отвечать на сообщения
Вы не можете редактировать свои сообщения
Вы не можете удалять свои сообщения
Вы не можете голосовать в опросах
Вы не можете прикреплять файлы к сообщениям
Вы можете скачивать файлы
Верим фактам, а не вранью Путина! Факт, что Правительство ведёт Россию к истреблению.
Так как численность населения падает, даже не смотря на приток эмигрантов!
Русская нация вымирает и вырождается, смешиваясь с эмигрантами!
Факт, что военных и граждан предприятий заставляют голосовать за партию Единая Россия и Путина
ПОД СТРАХОМ УВОЛЬНЕНИЯ!
Нам не нужно Правительство, блокирующее личную жизнь, интернет, нарушающее сохранность данных.
Все эти действия финансируются за счёт народа!