Мы создаём пары / We Make Couples (Майк Хулбум / Mike Hoolboom) [2016, Канада, авторское кино, HDRip] Sub Rus + Original Eng Торрент перезалит 13.10.19

Ответить на тему
Статистика раздачи
Размер:  4,55 GB   |    Зарегистрирован:  1 месяц 9 дней   |    Скачан:  0 раз

Полного источника не было: Никогда

 
   
 
 
Автор Сообщение

star21 ®

Пол: Женский

Стаж: 4 года

Сообщений: 551946

Откуда: Екатеринбург

Создавать темы 13-Окт-2019 22:55

[Цитировать]

Мы создаём пары / We Make Couples Страна: Канада
Жанр: авторское, экспериментальное, found footage
Год выпуска: 2016
Продолжительность: 00:58:07Перевод: Субтитры
Субтитры: русские
Оригинальная аудиодорожка: английскийРежиссер: Майк Хулбум / Mike HoolboomВ ролях: Андреа де Кейзер, Ирин РобинсонгОписание: Фильм-коллаж на основе найденных материалов и съемок на плёнку Super8 с авторским комментарием.
"Марксистская история любви, которая задаётся вопросом: может ли пара быть формой сопротивления? Размышления на темы брака, микрокино и искусства проекции. Гости фильма: участники протестов Occupy, Pussy Riot, сбежавшая коза, два пуделя, армия демонстрантов, Мос Деф, Франкенштейн и первый поцелуй в кино." - синопсис от автора.Доп. информация: http://mikehoolboom.com/?p=17826
о режиссёре: https://en.wikipedia.org/wiki/Mike_HoolboomСэмпл: http://sendfile.su/1519556Качество видео: HDRip
Формат видео: MP4Видео: H264, 16x9, 1280x720, 23.976 fps, 10,9 mbps
Аудио: AAC LC, 48 kHz, 317 kbps, 2 (L,R), 32bit
Формат субтитров: hardsub (неотключаемые)

фрагмент текста субтитров

21
00:17:42,770 --> 00:17:47,566
Капитализм - это непрерывный кризис проекции и роста.22
00:17:48,525 --> 00:17:51,820
Распространение новых изделий для новых тел.23
00:17:52,946 --> 00:17:57,534
Кинотеатры икомпьютеры формируют наш взгляд друг на друга24
00:17:58,160 --> 00:18:00,454
и на самих себя.25
00:18:08,962 --> 00:18:13,884
Фильмы учат нас себя вести, превращают нас в картинки.26
00:18:17,471 --> 00:18:20,099
Мы можем нарисовать картинку заново.27
00:18:20,307 --> 00:18:22,643
Может быть, мы можем заново нарисовать себя?28
00:18:37,241 --> 00:18:41,286
Психология и кинематограф родились в одно время.29
00:18:42,621 --> 00:18:45,165
В начале 20-го века.30
00:18:45,666 --> 00:18:48,961
Чтобы изучать искусство проекции.31
00:18:51,463 --> 00:18:54,967
Рабочие покидают фабрику.32
00:18:54,967 --> 00:18:59,221
Покидают одну и сразу оказываются в другой -33
00:18:59,847 --> 00:19:02,099
фабрике проекций.34
00:19:06,770 --> 00:19:11,066
Интересно, то, что ты называешь фабрикой проекции -35
00:19:11,483 --> 00:19:14,486
не способ ли это сказать "дорогая, я дома"?36
00:19:17,030 --> 00:19:18,991
Идут ли рабочие домой?37
00:19:20,200 --> 00:19:25,831
Они несут домой свои воспоминания.
Это новый вид38
00:19:27,082 --> 00:19:28,083
одиночества.39
00:19:41,680 --> 00:19:44,766
Чтобы избавиться от одиночества, мы создаём40
00:19:45,559 --> 00:19:47,561
изображения, чтобы они составили нам компанию.

MediaInfo

Формат                                   : MPEG-4Профиль формата                          : Base Media / Version 2Идентификатор кодека                     : mp42 (mp42/mp41)Размер файла                             : 4,55 ГбайтПродолжительность                        : 58 м. 7 с.Режим общего битрейта                    : ПеременныйОбщий поток                              : 11,2 Мбит/секДата кодирования                         : UTC 2017-05-19 14:26:52Дата пометки                             : UTC 2017-05-19 14:41:29TIM                                      : 00:00:00:00TSC                                      : 24000TSZ                                      : 1001ВидеоИдентификатор                            : 1Формат                                   : AVCФормат/Информация                        : Advanced Video CodecПрофиль формата                          : Main@L4.1Настройки формата                        : CABAC / 3 Ref FramesПараметр CABAC формата                   : ДаПараметр RefFrames формата               : 3 кадраПараметр GOP формата                     : M=4, N=23Идентификатор кодека                     : avc1Идентификатор кодека/Информация          : Advanced Video CodingПродолжительность                        : 58 м. 7 с.Битрейт                                  : 10,9 Мбит/секШирина                                   : 1280 пикселейВысота                                   : 720 пикселейСоотношение сторон                       : 16:9Режим частоты кадров                     : ПостоянныйЧастота кадров                           : 23,976 (24000/1001) кадра/секСтандарт вещания                         : NTSCЦветовое пространство                    : YUVСубдискретизация насыщенности            : 4:2:0Битовая глубина                          : 8 битТип развёртки                            : ПрогрессивнаяБит/(Пиксели*Кадры)                      : 0.493Размер потока                            : 4,42 Гбайт (97%)Язык                                     : EnglishДата кодирования                         : UTC 2017-05-19 14:26:53Дата пометки                             : UTC 2017-05-19 14:26:53Цветовой диапазон                        : LimitedОсновные цвета                           : BT.709Характеристики трансфера                 : BT.709Коэффициенты матрицы                     : BT.709Codec configuration box                  : avcCАудиоИдентификатор                            : 2Формат                                   : AAC LCФормат/Информация                        : Advanced Audio Codec Low ComplexityИдентификатор кодека                     : mp4a-40-2Продолжительность                        : 58 м. 7 с.Продолжительность оригинала              : 58 м. 7 с.Вид битрейта                             : ПеременныйБитрейт                                  : 317 Кбит/секМаксимальный битрейт                     : 416 Кбит/секКаналы                                   : 2 каналаChannelLayout                            : L RЧастота                                  : 48,0 КГцЧастота кадров                           : 46,875 кадров/сек (1024 SPF)Метод сжатия                             : С потерямиРазмер потока                            : 132 Мбайт (3%)Размер потока оригинала                  : 132 Мбайт (3%)Язык                                     : EnglishДата кодирования                         : UTC 2017-05-19 14:26:53Дата пометки                             : UTC 2017-05-19 14:26:53

Скриншот c названием фильма

Скриншоты

Чтобы скачать этот контент, Вам необходимо:
1. Скачать и установить торрент-клиент [клик для Windows], (для мобильного найдите на Play Маркет).
2. Кликнуть по [Скачать]


Внимание.
Если проверка ВЫ НЕ РОБОТ - не работает, значит Вы используете устаревший браузер.
Установите актуальный браузер и повторно кликните по [Скачать]
Безопасность: торрент-клиент разрешён АВ Касперского.

[asmlocator.ru].t670774.torrent 
Торрент: Зарегистрирован [ 2019-10-13 22:55 ] · B5749747AF1F4581BEB49CA8FB94DBBBDDC496A5

Скачать .torrent

Скачать

12 KB

Статус: проверено
Скачан: 0 раз
Размер: 4,55 GB
terms.php
[Профиль] [ЛС]
Показать сообщения:    
Ответить на тему

Текущее время: 23-Ноя 02:49

Часовой пояс: UTC ± 0



Вы не можете начинать темы
Вы не можете отвечать на сообщения
Вы не можете редактировать свои сообщения
Вы не можете удалять свои сообщения
Вы не можете голосовать в опросах
Вы не можете прикреплять файлы к сообщениям
Вы можете скачивать файлы
Верим фактам, а не вранью Путина! Факт, что Правительство ведёт Россию к истреблению.
Так как численность населения падает, даже не смотря на приток эмигрантов!
Русская нация вымирает и вырождается, смешиваясь с эмигрантами!
Факт, что военных и граждан предприятий заставляют голосовать за партию Единая Россия и Путина
ПОД СТРАХОМ УВОЛЬНЕНИЯ!
Нам не нужно Правительство, блокирующее личную жизнь, интернет, нарушающее сохранность данных.
Все эти действия финансируются за счёт народа!