[TR24][OF][TV] John Lunn and Eivør / John Lunn and Eivor - Последнее королевство / The Last Kingdom. Original Television Soundtrack - 2018 (Nordic, Folk)

Ответить на тему
Статистика раздачи
Размер:  580 MB   |    Зарегистрирован:  7 месяцев 15 дней   |    Скачан:  2 раза

Полного источника не было: 10 минут

 
   
 
 
Автор Сообщение

star21 ®

Пол: Женский

Стаж: 4 года 6 месяцев

Сообщений: 551945

Откуда: Екатеринбург

Создавать темы 12-Окт-2019 15:50

[Цитировать]

John Lunn and Eivør / The Last Kingdom. Original Television Soundtrack Формат записи/Источник записи: [TR24][OF][TV]
Наличие водяных знаков: Нет
Год издания/переиздания диска: 2018
Жанр: Nordic, Folk
Издатель (лейбл): Sony Classical
Продолжительность: 00:55:09
Наличие сканов в содержимом раздачи: Только обложка альбомаТреклист:
01 - The Last Kingdom - 5:23
02 - Lívstræðrir - 5:18
03 - Lighting The Beacons - 4:38
04 - Helig - 4:26
05 - Destiny Is All - 4:45
06 - Icicle - 5:35
07 - The Hall Of The Fallen - 5:56
08 - Aeternum - 7:05
09 - Bloody Moon - 6:41
10 - My England - 5:24Контейнер: FLAC (*.flac)
Тип рипа: tracksРазрядность: 24/48
Формат: PCM
Количество каналов: 2.0

Лог проверки качества

foobar2000 1.4.5 / Dynamic Range Meter 1.1.1log date: 2019-07-07 18:46:47--------------------------------------------------------------------------------Analyzed: John Lunn, eivør / The Last Kingdom (Original Television Soundtrack)--------------------------------------------------------------------------------DR         Peak         RMS     Duration Track--------------------------------------------------------------------------------DR11      -0.98 dB   -17.06 dB      5:23 01-The Last KingdomDR10      -0.45 dB   -14.98 dB      5:18 02-LívstræðrirDR12      -1.35 dB   -15.49 dB      4:38 03-Lighting the BeaconsDR10      -0.43 dB   -14.94 dB      4:26 04-HeligDR11      -0.49 dB   -15.50 dB      4:45 05-Destiny Is AllDR11      -0.86 dB   -16.20 dB      5:35 06-IcicleDR11      -0.72 dB   -16.74 dB      5:56 07-The Hall of the FallenDR10      -0.70 dB   -14.79 dB      7:05 08-AeternumDR12      -1.05 dB   -17.70 dB      6:41 09-Blood MoonDR10      -1.10 dB   -15.03 dB      5:24 10-My England--------------------------------------------------------------------------------Number of tracks:  10Official DR value: DR11Samplerate:        48000 HzChannels:          2Bits per sample:   24Bitrate:           1391 kbpsCodec:             FLAC================================================================================

Скриншот спектра частот

Источник (релизер): hdtracks.com
Композитор: Eivor, John Lunn, Marjun Syderbo Kjelnes (tracks: A5, B1, B3)

Об альбоме (сборнике)

Soundtrack to the popular viking TV series "The Last Kingdom"

Чтобы скачать этот контент, Вам необходимо:
1. Скачать и установить торрент-клиент [клик для Windows], (для мобильного найдите на Play Маркет).
2. Кликнуть по [Скачать]


Внимание.
Если проверка ВЫ НЕ РОБОТ - не работает, значит Вы используете устаревший браузер.
Установите актуальный браузер и повторно кликните по [Скачать]

Запрещён Яндекс браузер. Загрузка файлов им является ошибочной.
Безопасность: торрент-клиент разрешён АВ Касперского.

[asmlocator.ru].t670616.torrent 
Торрент: Зарегистрирован [ 2019-10-12 15:50 ] · 26490A392C2F16020B37FF1F7C8EC68A1EB132BE

Скачать .torrent

Скачать

13 KB

Статус: проверено
Скачан: 2 раз
Размер: 580 MB
terms.php
[Профиль] [ЛС]
Показать сообщения:    
Ответить на тему

Текущее время: 28-Май 14:55

Часовой пояс: UTC ± 0



Вы не можете начинать темы
Вы не можете отвечать на сообщения
Вы не можете редактировать свои сообщения
Вы не можете удалять свои сообщения
Вы не можете голосовать в опросах
Вы не можете прикреплять файлы к сообщениям
Вы можете скачивать файлы
Верим фактам, а не вранью Путина! Факт, что Правительство ведёт Россию к истреблению.
Так как численность населения падает, даже не смотря на приток эмигрантов!
Русская нация вымирает и вырождается, смешиваясь с эмигрантами!
Факт, что военных и граждан предприятий заставляют голосовать за партию Единая Россия и Путина
ПОД СТРАХОМ УВОЛЬНЕНИЯ!
Нам не нужно Правительство, блокирующее личную жизнь, интернет, нарушающее сохранность данных.
Все эти действия финансируются за счёт народа!