[SERIAL] Чернобыль / Chernobyl / Сезон: 1 / Серии: 1-5 из 5 (Йохан Ренк / Johan Renck ) [2019, драма, история, WEB-DLRip] [MP4, 480x]

Ответить на тему
Статистика раздачи
Размер:  1.45 GB   |    Зарегистрирован:  4 месяца 13 дней   |    Скачан:  0 раз

Полного источника не было: Никогда

 
   
 
 
Автор Сообщение

star21 ®

Пол: Женский

Стаж: 4 года 3 месяца

Сообщений: 551946

Откуда: Екатеринбург

Создавать темы 11-Окт-2019 01:55

[Цитировать]

Чернобыль / Chernobyl Год выпуска: 2019Страна: США, Великобритания
Жанр: драма, история
Продолжительность: ~01:00:00
Перевод: Профессиональный (многоголосый закадровый) Novamedia по заказу Amedia
Субтитры: нет
Оригинальная аудиодорожка: нетРежиссер: Йохан Ренк / Johan Renck
В ролях: Джаред Харрис, Стеллан Скарсгард, Эмили Уотсон, Джошуа Лис, Росс Армстронг, Фил Барантини, Джесси Бакли, Джеймс Космо, Дэниэл Стоунер, Карл ДейвисОписание: История об аварии на Чернобыльской АЭС в 1986 году, эвакуации жителей Припяти и ликвидации последствий. «Чернобыль» драматизирует истинную историю одной из худших техногенных катастроф в истории и рассказывает о храбрых мужчинах и женщинах, которые пожертвовали собой, чтобы спасти Европу от невообразимой катастрофы. Доп. информация: : Исходник (ссылка): https://rutracker.org/forum/viewtopic.php?t=5728952Качество: WEB-DLRip
Формат: MP4
Видео: AVC, 480x240, 512 kbps, 23,976 fps
Аудио: AAC, 48 kHz, 2 ch, 128 Kbps

ТХ/MediaInfo

ОбщееПолное имя : E:\Chernobyl\Chernobyl.s01e02.mp4Формат : MPEG-4Профиль формата : Base MediaИдентификатор кодека : isom (isom/avc1)Размер файла : 300 МбайтПродолжительность : 1 ч. 4 м.Режим общего битрейта : ПеременныйОбщий поток : 647 Кбит/секДата кодирования : UTC 2019-08-31 05:00:31Дата пометки : UTC 2019-08-31 05:00:31ВидеоИдентификатор : 1Формат : AVCФормат/Информация : Advanced Video CodecПрофиль формата : Main@L2.1Настройки формата : CABAC / 8 Ref FramesПараметр CABAC формата : ДаПараметр RefFrames формата : 8 кадровИдентификатор кодека : avc1Идентификатор кодека/Информация : Advanced Video CodingПродолжительность : 1 ч. 4 м.Битрейт : 512 Кбит/секМаксимальный битрейт : 1607 Кбит/секШирина : 480 пикселейВысота : 240 пикселейСоотношение сторон : 2,000Режим частоты кадров : ПостоянныйЧастота кадров : 23,976 (24000/1001) кадра/секЦветовое пространство : YUVСубдискретизация насыщенности : 4:2:0Битовая глубина : 8 битТип развёртки : ПрогрессивнаяБит/(Пиксели*Кадры) : 0.185Размер потока : 238 Мбайт (79%)Библиотека кодирования : x264 core 65 r999kMod cc51047Настройки программы : cabac=1 / ref=8 / deblock=1:0:0 / analyse=0x1:0x111 / me=hex / subme=8 / psy_rd=1.0:0.0 / mixed_ref=0 / me_range=16 / chroma_me=1 / trellis=0 / 8x8dct=0 / cqm=0 / deadzone=21,11 / chroma_qp_offset=-2 / threads=4 / thread_queue=4 / nr=0 / decimate=1 / mbaff=0 / bframes=8 / b_pyramid=0 / b_adapt=1 / b_bias=0 / direct=0 / wpredb=0 / keyint=250 / keyint_min=25 / scenecut=40(pre) / rc=2pass / bitrate=512 / ratetol=1.0 / qcomp=0.60 / qpmin=10 / qpmax=51 / qpstep=4 / cplxblur=20.0 / qblur=0.5 / ip_ratio=1.40 / pb_ratio=1.30 / aq=1:1.00Дата кодирования : UTC 2019-08-31 05:00:31Дата пометки : UTC 2019-08-31 05:00:36Codec configuration box : avcCАудиоИдентификатор : 2Формат : AAC LCФормат/Информация : Advanced Audio Codec Low ComplexityИдентификатор кодека : mp4a-40-2Продолжительность : 1 ч. 4 м.Вид битрейта : ПеременныйБитрейт : 131 Кбит/секМаксимальный битрейт : 144 Кбит/секКаналы : 2 каналаChannelLayout : L RЧастота : 48,0 КГцЧастота кадров : 46,875 кадров/сек (1024 SPF)Метод сжатия : С потерямиРазмер потока : 60,9 Мбайт (20%)Дата кодирования : UTC 2019-08-31 05:00:35Дата пометки : UTC 2019-08-31 05:00:36

Скриншоты

Чтобы скачать этот контент, Вам необходимо:
1. Скачать и установить торрент-клиент [клик для Windows], (для мобильного найдите на Play Маркет).
2. Кликнуть по [Скачать]


Внимание.
Если проверка ВЫ НЕ РОБОТ - не работает, значит Вы используете устаревший браузер.
Установите актуальный браузер и повторно кликните по [Скачать]
Безопасность: торрент-клиент разрешён АВ Касперского.

[asmlocator.ru].t670068.torrent 
Торрент: Зарегистрирован [ 2019-10-11 01:55 ] · EE6D69A9F5BF2C7222B6AA4CE32628F444873AB9

Скачать .torrent

Скачать

15 KB

Статус: проверено
Скачан: 0 раз
Размер: 1.45 GB
terms.php
[Профиль] [ЛС]
Показать сообщения:    
Ответить на тему

Текущее время: 24-Фев 11:44

Часовой пояс: UTC ± 0



Вы не можете начинать темы
Вы не можете отвечать на сообщения
Вы не можете редактировать свои сообщения
Вы не можете удалять свои сообщения
Вы не можете голосовать в опросах
Вы не можете прикреплять файлы к сообщениям
Вы можете скачивать файлы
Верим фактам, а не вранью Путина! Факт, что Правительство ведёт Россию к истреблению.
Так как численность населения падает, даже не смотря на приток эмигрантов!
Русская нация вымирает и вырождается, смешиваясь с эмигрантами!
Факт, что военных и граждан предприятий заставляют голосовать за партию Единая Россия и Путина
ПОД СТРАХОМ УВОЛЬНЕНИЯ!
Нам не нужно Правительство, блокирующее личную жизнь, интернет, нарушающее сохранность данных.
Все эти действия финансируются за счёт народа!