(Alternative Rock, Leftfield, Brit Pop, Pop Rock, Big Beat) [CD] VA - The Best...Anthems...Ever! (2CD: Blur, The Charlatans, Radiohead, Pulp, Suede, Fun Lovin\' Criminals, James, Stone Roses etc) - 1997, FLAC (tracks+.cue), lossless

Ответить на тему
Статистика раздачи
Размер:  1.19 GB   |    Зарегистрирован:  3 месяца 28 дней   |    Скачан:  0 раз

Полного источника не было: Никогда

 
   
 
 
Автор Сообщение

star21 ®

Пол: Женский

Стаж: 4 года 2 месяца

Сообщений: 551946

Откуда: Екатеринбург

Создавать темы 30-Сен-2019 23:30

[Цитировать]

The Best...Anthems...Ever! (2CD) Жанр: Alternative Rock, Leftfield, Brit Pop, Pop Rock, Big Beat
Носитель: CD
Страна-производитель диска (релиза): Europe
Год издания: 1997
Издатель (лейбл): Virgin EMI; Box Music
Номер по каталогу: VTDCD 154; 7243 8 44764 2 7
Страна исполнителя (группы): Various
Аудиокодек: FLAC (*.flac)
Тип рипа: tracks+.cue
Продолжительность: 2:27:58.267 (391 531 560 samples)
Источник: собственный рип
Наличие сканов в содержимом раздачи: да

CD1 продолжительность 1:13:56.360 (195 643 476 samples)

Треклист:01. Chumbawamba / Tubthumping [0:03:24.32]
02. Blur / Parklife [0:03:05.20]
03. Seahorses / Love Is The Law [0:03:38.45]
04. The Charlatans / North Country Boy [0:03:29.07]
05. Ocean Colour Scene / The Day We Caught The Train [0:03:10.25]
06. Supergrass / Alright [0:02:59.12]
07. Kula Shaker / Tattva [0:03:47.25]
08. Reef / Place Your Hands [0:03:38.39]
09. Radiohead / Creep [0:03:56.25]
10. Bush / Swallowed [0:04:04.50]
11. Fun Lovin' Criminals / Scooby Snacks [0:03:03.05]
12. Foo Fighters / This Is A Call [0:03:50.02]
13. Placebo / Nancy Boy [0:03:19.72]
14. Prodigy / Breathe [0:04:00.25]
15. Ash / Girl From Mars [0:03:30.65]
16. Skunk Anansie / Weak [0:03:32.12]
17. Manic Street Preachers / You Love Us [0:04:17.07]
18. The Chemical Brothers / Block Rockin' Beats [0:05:00.52]
19. Underworld / Born Slippy [0:04:21.12]
20. Leftfield / Lydon / Open Up [0:03:47.20]

Скриншот спектра частот CD1


Лог создания рипа CD1

Exact Audio Copy V1.3 from 2. September 2016EAC extraction logfile from 12. May 2019, 11:05Various / The Best...Anthems...Ever! CD1Used drive  : PIONEER DVD-RW DVRTD11RS   Adapter: 1  ID: 0Read mode               : SecureUtilize accurate stream : YesDefeat audio cache      : YesMake use of C2 pointers : NoRead offset correction                      : 6Overread into Lead-In and Lead-Out          : NoFill up missing offset samples with silence : YesDelete leading and trailing silent blocks   : NoNull samples used in CRC calculations       : YesUsed interface                              : Native Win32 interface for Win NT & 2000Gap handling                                : Appended to previous trackUsed output format              : User Defined EncoderSelected bitrate                : 1024 kBit/sQuality                         : HighAdd ID3 tag                     : NoCommand line compressor         : C:\Program Files (x86)\Exact Audio Copy\Flac\flac.exeAdditional command line options : -V -8 -T "Genre=%genre%" -T "Artist=%artist%" -T "Title=%title%" -T "Album=%albumtitle%" -T "Date=%year%" -T "Tracknumber=%tracknr%" -T "Comment=%comment%" %source%TOC of the extracted CD     Track |   Start  |  Length  | Start sector | End sector    ---------------------------------------------------------        1  |  0:00.00 |  3:24.32 |         0    |    15331        2  |  3:24.32 |  3:05.20 |     15332    |    29226        3  |  6:29.52 |  3:38.45 |     29227    |    45621        4  | 10:08.22 |  3:29.07 |     45622    |    61303        5  | 13:37.29 |  3:10.25 |     61304    |    75578        6  | 16:47.54 |  2:59.12 |     75579    |    89015        7  | 19:46.66 |  3:47.25 |     89016    |   106065        8  | 23:34.16 |  3:38.39 |    106066    |   122454        9  | 27:12.55 |  3:56.25 |    122455    |   140179       10  | 31:09.05 |  4:04.50 |    140180    |   158529       11  | 35:13.55 |  3:03.05 |    158530    |   172259       12  | 38:16.60 |  3:50.02 |    172260    |   189511       13  | 42:06.62 |  3:19.72 |    189512    |   204508       14  | 45:26.59 |  4:00.25 |    204509    |   222533       15  | 49:27.09 |  3:30.65 |    222534    |   238348       16  | 52:57.74 |  3:32.12 |    238349    |   254260       17  | 56:30.11 |  4:17.07 |    254261    |   273542       18  | 60:47.18 |  5:00.52 |    273543    |   296094       19  | 65:47.70 |  4:21.12 |    296095    |   315681       20  | 70:09.07 |  3:47.20 |    315682    |   332726Track  1     Filename D:\My torrents\The Best...Anthems...Ever! [1997]\CD1\01. Chumbawamba - Tubthumping.wav     Pre-gap length  0:00:02.00     Peak level 98.9 %     Extraction speed 2.9 X     Track quality 100.0 %     Test CRC 4A794D3C     Copy CRC 4A794D3C     Track not present in AccurateRip database     Copy OKTrack  2     Filename D:\My torrents\The Best...Anthems...Ever! [1997]\CD1\02. Blur - Parklife.wav     Pre-gap length  0:00:01.74     Peak level 98.4 %     Extraction speed 2.6 X     Track quality 99.9 %     Test CRC 7FD4AA15     Copy CRC 7FD4AA15     Track not present in AccurateRip database     Copy OKTrack  3     Filename D:\My torrents\The Best...Anthems...Ever! [1997]\CD1\03. Seahorses - Love Is The Law.wav     Pre-gap length  0:00:02.00     Peak level 98.0 %     Extraction speed 3.4 X     Track quality 100.0 %     Test CRC D029817D     Copy CRC D029817D     Track not present in AccurateRip database     Copy OKTrack  4     Filename D:\My torrents\The Best...Anthems...Ever! [1997]\CD1\04. The Charlatans - North Country Boy.wav     Pre-gap length  0:00:02.00     Peak level 97.9 %     Extraction speed 3.5 X     Track quality 100.0 %     Test CRC F16050C8     Copy CRC F16050C8     Track not present in AccurateRip database     Copy OKTrack  5     Filename D:\My torrents\The Best...Anthems...Ever! [1997]\CD1\05. Ocean Colour Scene - The Day We Caught The Train.wav     Pre-gap length  0:00:02.00     Peak level 98.0 %     Extraction speed 3.7 X     Track quality 100.0 %     Test CRC C2F3B42B     Copy CRC C2F3B42B     Track not present in AccurateRip database     Copy OKTrack  6     Filename D:\My torrents\The Best...Anthems...Ever! [1997]\CD1\06. Supergrass - Alright.wav     Pre-gap length  0:00:02.00     Peak level 99.1 %     Extraction speed 3.8 X     Track quality 100.0 %     Test CRC FBFF9090     Copy CRC FBFF9090     Track not present in AccurateRip database     Copy OKTrack  7     Filename D:\My torrents\The Best...Anthems...Ever! [1997]\CD1\07. Kula Shaker - Tattva.wav     Pre-gap length  0:00:02.00     Peak level 98.9 %     Extraction speed 4.1 X     Track quality 100.0 %     Test CRC 7A1926FF     Copy CRC 7A1926FF     Track not present in AccurateRip database     Copy OKTrack  8     Filename D:\My torrents\The Best...Anthems...Ever! [1997]\CD1\08. Reef - Place Your Hands.wav     Pre-gap length  0:00:01.74     Peak level 98.7 %     Extraction speed 4.3 X     Track quality 100.0 %     Test CRC 94AE3C8B     Copy CRC 94AE3C8B     Track not present in AccurateRip database     Copy OKTrack  9     Filename D:\My torrents\The Best...Anthems...Ever! [1997]\CD1\09. Radiohead - Creep.wav     Pre-gap length  0:00:02.00     Peak level 98.5 %     Extraction speed 4.5 X     Track quality 100.0 %     Test CRC 74F8465A     Copy CRC 74F8465A     Track not present in AccurateRip database     Copy OKTrack 10     Filename D:\My torrents\The Best...Anthems...Ever! [1997]\CD1\10. Bush - Swallowed.wav     Pre-gap length  0:00:02.00     Peak level 90.7 %     Extraction speed 4.2 X     Track quality 99.9 %     Test CRC EA42677F     Copy CRC EA42677F     Track not present in AccurateRip database     Copy OKTrack 11     Filename D:\My torrents\The Best...Anthems...Ever! [1997]\CD1\11. Fun Lovin' Criminals - Scooby Snacks.wav     Pre-gap length  0:00:02.00     Peak level 98.3 %     Extraction speed 4.7 X     Track quality 100.0 %     Test CRC F270F9F5     Copy CRC F270F9F5     Track not present in AccurateRip database     Copy OKTrack 12     Filename D:\My torrents\The Best...Anthems...Ever! [1997]\CD1\12. Foo Fighters - This Is A Call.wav     Pre-gap length  0:00:02.00     Peak level 98.7 %     Extraction speed 5.0 X     Track quality 100.0 %     Test CRC 1CC3495A     Copy CRC 1CC3495A     Track not present in AccurateRip database     Copy OKTrack 13     Filename D:\My torrents\The Best...Anthems...Ever! [1997]\CD1\13. Placebo - Nancy Boy.wav     Pre-gap length  0:00:01.74     Peak level 98.7 %     Extraction speed 5.0 X     Track quality 100.0 %     Test CRC C10559FD     Copy CRC C10559FD     Track not present in AccurateRip database     Copy OKTrack 14     Filename D:\My torrents\The Best...Anthems...Ever! [1997]\CD1\14. Prodigy - Breathe.wav     Pre-gap length  0:00:02.00     Peak level 76.9 %     Extraction speed 4.7 X     Track quality 99.9 %     Test CRC BB3F353C     Copy CRC BB3F353C     Track not present in AccurateRip database     Copy OKTrack 15     Filename D:\My torrents\The Best...Anthems...Ever! [1997]\CD1\15. Ash - Girl From Mars.wav     Pre-gap length  0:00:02.00     Peak level 92.1 %     Extraction speed 5.4 X     Track quality 100.0 %     Test CRC 66808BB2     Copy CRC 66808BB2     Track not present in AccurateRip database     Copy OKTrack 16     Filename D:\My torrents\The Best...Anthems...Ever! [1997]\CD1\16. Skunk Anansie - Weak.wav     Pre-gap length  0:00:01.74     Peak level 78.3 %     Extraction speed 4.8 X     Track quality 99.9 %     Test CRC 32F1490C     Copy CRC 32F1490C     Track not present in AccurateRip database     Copy OKTrack 17     Filename D:\My torrents\The Best...Anthems...Ever! [1997]\CD1\17. Manic Street Preachers - You Love Us.wav     Pre-gap length  0:00:02.00     Peak level 98.0 %     Extraction speed 5.8 X     Track quality 100.0 %     Test CRC 26E49BD2     Copy CRC 26E49BD2     Track not present in AccurateRip database     Copy OKTrack 18     Filename D:\My torrents\The Best...Anthems...Ever! [1997]\CD1\18. The Chemical Brothers - Block Rockin' Beats.wav     Pre-gap length  0:00:01.74     Peak level 86.7 %     Extraction speed 6.0 X     Track quality 100.0 %     Test CRC 508A5CD9     Copy CRC 508A5CD9     Track not present in AccurateRip database     Copy OKTrack 19     Filename D:\My torrents\The Best...Anthems...Ever! [1997]\CD1\19. Underworld - Born Slippy.wav     Pre-gap length  0:00:02.00     Peak level 91.8 %     Extraction speed 5.9 X     Track quality 100.0 %     Test CRC 79B902C7     Copy CRC 79B902C7     Track not present in AccurateRip database     Copy OKTrack 20     Filename D:\My torrents\The Best...Anthems...Ever! [1997]\CD1\20. Leftfield + Lydon - Open Up.wav     Pre-gap length  0:00:01.74     Peak level 95.3 %     Extraction speed 6.1 X     Track quality 100.0 %     Test CRC 9689437C     Copy CRC 9689437C     Track not present in AccurateRip database     Copy OKNone of the tracks are present in the AccurateRip databaseNo errors occurredEnd of status report---- CUETools DB Plugin V2.1.6[CTDB TOCID: mXQXDz9f6QXv7lyTGY1BBDtbCzs-] foundSubmit result: already submittedTrack | CTDB Status  1   | (1/1) Accurately ripped  2   | (1/1) Accurately ripped  3   | (1/1) Accurately ripped  4   | (1/1) Accurately ripped  5   | (1/1) Accurately ripped  6   | (1/1) Accurately ripped  7   | (1/1) Accurately ripped  8   | (1/1) Accurately ripped  9   | (1/1) Accurately ripped 10   | (1/1) Accurately ripped 11   | (1/1) Accurately ripped 12   | (1/1) Accurately ripped 13   | (1/1) Accurately ripped 14   | (1/1) Accurately ripped 15   | (1/1) Accurately ripped 16   | (1/1) Accurately ripped 17   | (1/1) Accurately ripped 18   | (1/1) Accurately ripped 19   | (1/1) Accurately ripped 20   | (1/1) Accurately ripped==== Log checksum 5698A7D37F62E406F08842148B1B8793393CEBC6E0862C601707270C526C50E9 ====

Содержание индексной карты (.CUE) CD1

REM GENRE "Alternative Rock, Leftfield, Brit Pop, Pop Rock, Big Beat"REM DATE 1997REM DISCID 30115414REM COMMENT "ExactAudioCopy v1.3"CATALOG 0000000000000PERFORMER "Various"TITLE "The Best...Anthems...Ever! CD1"REM COMPOSER "Various"FILE "01. Chumbawamba - Tubthumping.flac" WAVE  TRACK 01 AUDIO    TITLE "Tubthumping"    PERFORMER "Chumbawamba"    REM COMPOSER "Various"    INDEX 01 00:00:00  TRACK 02 AUDIO    TITLE "Parklife"    PERFORMER "Blur"    REM COMPOSER "Various"    INDEX 00 03:22:33FILE "02. Blur - Parklife.flac" WAVE    INDEX 01 00:00:00  TRACK 03 AUDIO    TITLE "Love Is The Law"    PERFORMER "Seahorses"    REM COMPOSER "Various"    INDEX 00 03:03:20FILE "03. Seahorses - Love Is The Law.flac" WAVE    INDEX 01 00:00:00  TRACK 04 AUDIO    TITLE "North Country Boy"    PERFORMER "The Charlatans"    REM COMPOSER "Various"    INDEX 00 03:36:45FILE "04. The Charlatans - North Country Boy.flac" WAVE    INDEX 01 00:00:00  TRACK 05 AUDIO    TITLE "The Day We Caught The Train"    PERFORMER "Ocean Colour Scene"    REM COMPOSER "Various"    INDEX 00 03:27:07FILE "05. Ocean Colour Scene - The Day We Caught The Train.flac" WAVE    INDEX 01 00:00:00  TRACK 06 AUDIO    TITLE "Alright"    PERFORMER "Supergrass"    REM COMPOSER "Various"    INDEX 00 03:08:25FILE "06. Supergrass - Alright.flac" WAVE    INDEX 01 00:00:00  TRACK 07 AUDIO    TITLE "Tattva"    PERFORMER "Kula Shaker"    REM COMPOSER "Various"    INDEX 00 02:57:12FILE "07. Kula Shaker - Tattva.flac" WAVE    INDEX 01 00:00:00  TRACK 08 AUDIO    TITLE "Place Your Hands"    PERFORMER "Reef"    REM COMPOSER "Various"    INDEX 00 03:45:26FILE "08. Reef - Place Your Hands.flac" WAVE    INDEX 01 00:00:00  TRACK 09 AUDIO    TITLE "Creep"    PERFORMER "Radiohead"    REM COMPOSER "Various"    INDEX 00 03:36:39FILE "09. Radiohead - Creep.flac" WAVE    INDEX 01 00:00:00  TRACK 10 AUDIO    TITLE "Swallowed"    PERFORMER "Bush"    REM COMPOSER "Various"    INDEX 00 03:54:25FILE "10. Bush - Swallowed.flac" WAVE    INDEX 01 00:00:00  TRACK 11 AUDIO    TITLE "Scooby Snacks"    PERFORMER "Fun Lovin' Criminals"    REM COMPOSER "Various"    INDEX 00 04:02:50FILE "11. Fun Lovin' Criminals - Scooby Snacks.flac" WAVE    INDEX 01 00:00:00  TRACK 12 AUDIO    TITLE "This Is A Call"    PERFORMER "Foo Fighters"    REM COMPOSER "Various"    INDEX 00 03:01:05FILE "12. Foo Fighters - This Is A Call.flac" WAVE    INDEX 01 00:00:00  TRACK 13 AUDIO    TITLE "Nancy Boy"    PERFORMER "Placebo"    REM COMPOSER "Various"    INDEX 00 03:48:03FILE "13. Placebo - Nancy Boy.flac" WAVE    INDEX 01 00:00:00  TRACK 14 AUDIO    TITLE "Breathe"    PERFORMER "Prodigy"    REM COMPOSER "Various"    INDEX 00 03:17:72FILE "14. Prodigy - Breathe.flac" WAVE    INDEX 01 00:00:00  TRACK 15 AUDIO    TITLE "Girl From Mars"    PERFORMER "Ash"    REM COMPOSER "Various"    INDEX 00 03:58:25FILE "15. Ash - Girl From Mars.flac" WAVE    INDEX 01 00:00:00  TRACK 16 AUDIO    TITLE "Weak"    PERFORMER "Skunk Anansie"    REM COMPOSER "Various"    INDEX 00 03:28:66FILE "16. Skunk Anansie - Weak.flac" WAVE    INDEX 01 00:00:00  TRACK 17 AUDIO    TITLE "You Love Us"    PERFORMER "Manic Street Preachers"    REM COMPOSER "Various"    INDEX 00 03:30:12FILE "17. Manic Street Preachers - You Love Us.flac" WAVE    INDEX 01 00:00:00  TRACK 18 AUDIO    TITLE "Block Rockin' Beats"    PERFORMER "The Chemical Brothers"    REM COMPOSER "Various"    INDEX 00 04:15:08FILE "18. The Chemical Brothers - Block Rockin' Beats.flac" WAVE    INDEX 01 00:00:00  TRACK 19 AUDIO    TITLE "Born Slippy"    PERFORMER "Underworld"    REM COMPOSER "Various"    INDEX 00 04:58:52FILE "19. Underworld - Born Slippy.flac" WAVE    INDEX 01 00:00:00  TRACK 20 AUDIO    TITLE "Open Up"    PERFORMER "Leftfield / Lydon"    REM COMPOSER "Various"    INDEX 00 04:19:13FILE "20. Leftfield + Lydon - Open Up.flac" WAVE    INDEX 01 00:00:00

Лог проверки качества CD1

AUDIOCHECKER v2.0 beta (build 457) - by Dester - opdester@freemail.hu~~~~~~~~~~~~~~~~~~~~~~~~~~~~~~~~~~-=== DO NOT EDIT THIS FILE! ===-Path: ...\CD101 -=- 01. Chumbawamba - Tubthumping.flac -=- CDDA (100%)02 -=- 02. Blur - Parklife.flac -=- CDDA (100%)03 -=- 03. Seahorses - Love Is The Law.flac -=- CDDA (99%)04 -=- 04. The Charlatans - North Country Boy.flac -=- CDDA (100%)05 -=- 05. Ocean Colour Scene - The Day We Caught The Train.flac -=- CDDA (100%)06 -=- 06. Supergrass - Alright.flac -=- CDDA (100%)07 -=- 07. Kula Shaker - Tattva.flac -=- CDDA (100%)08 -=- 08. Reef - Place Your Hands.flac -=- CDDA (100%)09 -=- 09. Radiohead - Creep.flac -=- CDDA (100%)10 -=- 10. Bush - Swallowed.flac -=- CDDA (100%)11 -=- 11. Fun Lovin' Criminals - Scooby Snacks.flac -=- CDDA (100%)12 -=- 12. Foo Fighters - This Is A Call.flac -=- CDDA (100%)13 -=- 13. Placebo - Nancy Boy.flac -=- CDDA (100%)14 -=- 14. Prodigy - Breathe.flac -=- CDDA (100%)15 -=- 15. Ash - Girl From Mars.flac -=- CDDA (99%)16 -=- 16. Skunk Anansie - Weak.flac -=- CDDA (100%)17 -=- 17. Manic Street Preachers - You Love Us.flac -=- CDDA (100%)18 -=- 18. The Chemical Brothers - Block Rockin' Beats.flac -=- CDDA (99%)19 -=- 19. Underworld - Born Slippy.flac -=- CDDA (100%)20 -=- 20. Leftfield + Lydon - Open Up.flac -=- CDDA (100%)Summary 99,85% CDDA60633380

Замер динамического диапазона (DR) CD1

foobar2000 1.3.10 / Замер динамического диапазона (DR) 1.1.1
Дата отчёта: 2019-05-12 11:11:07--------------------------------------------------------------------------------
Анализ: Ash / The Best...Anthems...Ever! CD1 (1)
Blur / The Best...Anthems...Ever! CD1 (2)
Bush / The Best...Anthems...Ever! CD1 (3)
Chumbawamba / The Best...Anthems...Ever! CD1 (4)
Foo Fighters / The Best...Anthems...Ever! CD1 (5)
Fun Lovin' Criminals / The Best...Anthems...Ever! CD1 (6)
Kula Shaker / The Best...Anthems...Ever! CD1 (7)
Leftfield / Lydon / The Best...Anthems...Ever! CD1 (8)
Manic Street Preachers / The Best...Anthems...Ever! CD1 (9)
Ocean Colour Scene / The Best...Anthems...Ever! CD1 (10)
Placebo / The Best...Anthems...Ever! CD1 (11)
Prodigy / The Best...Anthems...Ever! CD1 (12)
Radiohead / The Best...Anthems...Ever! CD1 (13)
Reef / The Best...Anthems...Ever! CD1 (14)
Seahorses / The Best...Anthems...Ever! CD1 (15)
Skunk Anansie / The Best...Anthems...Ever! CD1 (16)
Supergrass / The Best...Anthems...Ever! CD1 (17)
The Charlatans / The Best...Anthems...Ever! CD1 (18)
The Chemical Brothers / The Best...Anthems...Ever! CD1 (19)
Underworld / The Best...Anthems...Ever! CD1 (20)
--------------------------------------------------------------------------------DR Пики RMS Продолжительность трека
--------------------------------------------------------------------------------
DR7 -0.71 дБ -9.86 дБ 3:31 15-Girl From Mars
DR9 -0.14 дБ -10.48 дБ 3:05 02-Parklife
DR8 -0.84 дБ -10.99 дБ 4:05 10-Swallowed
DR7 -0.09 дБ -9.20 дБ 3:24 01-Tubthumping
DR7 -0.11 дБ -8.07 дБ 3:50 12-This Is A Call
DR8 -0.15 дБ -9.32 дБ 3:03 11-Scooby Snacks
DR7 -0.09 дБ -9.44 дБ 3:47 07-Tattva
DR10 -0.42 дБ -11.71 дБ 3:47 20-Open Up
DR10 -0.17 дБ -11.73 дБ 4:17 17-You Love Us
DR7 -0.17 дБ -9.51 дБ 3:10 05-The Day We Caught The Train
DR8 -0.11 дБ -9.16 дБ 3:20 13-Nancy Boy
DR5 -2.27 дБ -9.01 дБ 4:00 14-Breathe
DR10 -0.12 дБ -13.02 дБ 3:56 09-Creep
DR8 -0.11 дБ -8.50 дБ 3:39 08-Place Your Hands
DR10 -0.17 дБ -11.89 дБ 3:39 03-Love Is The Law
DR6 -2.12 дБ -10.05 дБ 3:32 16-Weak
DR8 -0.07 дБ -9.66 дБ 2:59 06-Alright
DR6 -0.18 дБ -8.00 дБ 3:29 04-North Country Boy
DR6 -1.23 дБ -9.04 дБ 5:01 18-Block Rockin' Beats
DR10 -0.74 дБ -12.62 дБ 4:21 19-Born Slippy
--------------------------------------------------------------------------------Количество треков: 20
Реальные значения DR: DR8Частота: 44100 Гц
Каналов: 2
Разрядность: 16
Битрейт: 907 кбит/с
Кодек: FLAC
================================================================================

CD2 продолжительность 1:14:01.907 (195 888 084 samples)

Треклист:01.The Verve / The Drugs Don't Work [0:04:45.04]
02. Radiohead / Street Spirit (Fade Out) [0:04:12.32]
03. The La's / There She Goes [0:02:41.50]
04. Garbage / Stupid Girl [0:04:19.29]
05. Pulp / Disco 2000 [0:04:48.72]
06. Suede / Trash [0:04:03.18]
07. James / Sit Down [0:04:02.22]
08. Cast / Alright [0:03:34.20]
09. The Lightning Seeds / Life Of Riley [0:02:46.66]
10. Paul Weller / The Changingman [0:02:51.39]
11. Eels / Novocaine For The Soul [0:03:07.05]
12. The Presidents Of The United States Of America / Peaches [0:02:50.14]
13. Stone Roses / Fools Gold [0:03:03.54]
14. Levellers / Hope Street [0:03:59.12]
15. McAlmont / Butler / Yes [0:03:58.06]
16. Mansun / Wide Open Space [0:04:01.37]
17. David Bowie / Heroes [0:03:32.09]
18. Blur / Song 2 [0:02:00.74]
19. Supergrass / Caught By The Fuzz [0:02:17.04]
20. Iggy Pop / Lust For Life [0:03:16.59]
21. PF Project Feat. Ewan McGregor / Choose Life [0:03:49.42]

Скриншот спектра частот CD2


Лог создания рипа CD2

Exact Audio Copy V1.3 from 2. September 2016EAC extraction logfile from 12. May 2019, 9:48Various / The Best...Anthems...Ever! СD2Used drive  : PIONEER DVD-RW DVRTD11RS   Adapter: 1  ID: 0Read mode               : SecureUtilize accurate stream : YesDefeat audio cache      : YesMake use of C2 pointers : NoRead offset correction                      : 6Overread into Lead-In and Lead-Out          : NoFill up missing offset samples with silence : YesDelete leading and trailing silent blocks   : NoNull samples used in CRC calculations       : YesUsed interface                              : Native Win32 interface for Win NT & 2000Gap handling                                : Appended to previous trackUsed output format              : User Defined EncoderSelected bitrate                : 1024 kBit/sQuality                         : HighAdd ID3 tag                     : NoCommand line compressor         : C:\Program Files (x86)\Exact Audio Copy\Flac\flac.exeAdditional command line options : -V -8 -T "Genre=%genre%" -T "Artist=%artist%" -T "Title=%title%" -T "Album=%albumtitle%" -T "Date=%year%" -T "Tracknumber=%tracknr%" -T "Comment=%comment%" %source%TOC of the extracted CD     Track |   Start  |  Length  | Start sector | End sector    ---------------------------------------------------------        1  |  0:00.00 |  4:45.04 |         0    |    21378        2  |  4:45.04 |  4:12.32 |     21379    |    40310        3  |  8:57.36 |  2:41.50 |     40311    |    52435        4  | 11:39.11 |  4:19.29 |     52436    |    71889        5  | 15:58.40 |  4:48.72 |     71890    |    93561        6  | 20:47.37 |  4:03.18 |     93562    |   111804        7  | 24:50.55 |  4:02.22 |    111805    |   129976        8  | 28:53.02 |  3:34.20 |    129977    |   146046        9  | 32:27.22 |  2:46.66 |    146047    |   158562       10  | 35:14.13 |  2:51.39 |    158563    |   171426       11  | 38:05.52 |  3:07.05 |    171427    |   185456       12  | 41:12.57 |  2:50.14 |    185457    |   198220       13  | 44:02.71 |  3:03.54 |    198221    |   211999       14  | 47:06.50 |  3:59.12 |    212000    |   229936       15  | 51:05.62 |  3:58.06 |    229937    |   247792       16  | 55:03.68 |  4:01.37 |    247793    |   265904       17  | 59:05.30 |  3:32.09 |    265905    |   281813       18  | 62:37.39 |  2:00.74 |    281814    |   290887       19  | 64:38.38 |  2:17.04 |    290888    |   301166       20  | 66:55.42 |  3:16.59 |    301167    |   315925       21  | 70:12.26 |  3:49.42 |    315926    |   333142Track  1     Filename D:\My torrents\The Best...Anthems...Ever! [1997]\CD2\01. The Verve - The Drugs Don't Work.wav     Pre-gap length  0:00:02.00     Peak level 98.7 %     Extraction speed 3.1 X     Track quality 100.0 %     Test CRC 1318EA78     Copy CRC 1318EA78     Track not present in AccurateRip database     Copy OKTrack  2     Filename D:\My torrents\The Best...Anthems...Ever! [1997]\CD2\02. Radiohead - Street Spirit (Fade Out).wav     Pre-gap length  0:00:00.36     Peak level 98.4 %     Extraction speed 3.4 X     Track quality 100.0 %     Test CRC 8FC08985     Copy CRC 8FC08985     Track not present in AccurateRip database     Copy OKTrack  3     Filename D:\My torrents\The Best...Anthems...Ever! [1997]\CD2\03. The La's - There She Goes.wav     Pre-gap length  0:00:00.36     Peak level 98.7 %     Extraction speed 2.8 X     Track quality 99.9 %     Test CRC 7A3EBCEE     Copy CRC 7A3EBCEE     Track not present in AccurateRip database     Copy OKTrack  4     Filename D:\My torrents\The Best...Anthems...Ever! [1997]\CD2\04. Garbage - Stupid Girl.wav     Pre-gap length  0:00:00.36     Peak level 98.0 %     Extraction speed 3.8 X     Track quality 100.0 %     Test CRC FC575493     Copy CRC FC575493     Track not present in AccurateRip database     Copy OKTrack  5     Filename D:\My torrents\The Best...Anthems...Ever! [1997]\CD2\05. Pulp - Disco 2000.wav     Pre-gap length  0:00:00.36     Peak level 75.9 %     Extraction speed 4.2 X     Track quality 100.0 %     Test CRC B386071A     Copy CRC B386071A     Track not present in AccurateRip database     Copy OKTrack  6     Filename D:\My torrents\The Best...Anthems...Ever! [1997]\CD2\06. Suede - Trash.wav     Pre-gap length  0:00:00.36     Peak level 94.0 %     Extraction speed 4.3 X     Track quality 100.0 %     Test CRC 0BFC113B     Copy CRC 0BFC113B     Track not present in AccurateRip database     Copy OKTrack  7     Filename D:\My torrents\The Best...Anthems...Ever! [1997]\CD2\07. James - Sit Down.wav     Pre-gap length  0:00:00.36     Peak level 99.0 %     Extraction speed 4.5 X     Track quality 100.0 %     Test CRC 14B1AA24     Copy CRC 14B1AA24     Track not present in AccurateRip database     Copy OKTrack  8     Filename D:\My torrents\The Best...Anthems...Ever! [1997]\CD2\08. Cast - Alright.wav     Pre-gap length  0:00:00.36     Peak level 98.6 %     Extraction speed 4.6 X     Track quality 100.0 %     Test CRC 6396DF2A     Copy CRC 6396DF2A     Track not present in AccurateRip database     Copy OKTrack  9     Filename D:\My torrents\The Best...Anthems...Ever! [1997]\CD2\09. The Lightning Seeds - Life Of Riley.wav     Pre-gap length  0:00:00.36     Peak level 98.9 %     Extraction speed 4.5 X     Track quality 100.0 %     Test CRC FF4BB2A8     Copy CRC FF4BB2A8     Track not present in AccurateRip database     Copy OKTrack 10     Filename D:\My torrents\The Best...Anthems...Ever! [1997]\CD2\10. Paul Weller - The Changingman.wav     Pre-gap length  0:00:00.36     Peak level 88.3 %     Extraction speed 4.6 X     Track quality 100.0 %     Test CRC 5AD45164     Copy CRC 5AD45164     Track not present in AccurateRip database     Copy OKTrack 11     Filename D:\My torrents\The Best...Anthems...Ever! [1997]\CD2\11. Eels - Novocaine For The Soul.wav     Pre-gap length  0:00:00.36     Peak level 98.0 %     Extraction speed 4.9 X     Track quality 100.0 %     Test CRC 3504494F     Copy CRC 3504494F     Track not present in AccurateRip database     Copy OKTrack 12     Filename D:\My torrents\The Best...Anthems...Ever! [1997]\CD2\12. The Presidents Of The United States Of America - Peaches.wav     Pre-gap length  0:00:00.36     Peak level 86.0 %     Extraction speed 4.9 X     Track quality 100.0 %     Test CRC E713F4C6     Copy CRC E713F4C6     Track not present in AccurateRip database     Copy OKTrack 13     Filename D:\My torrents\The Best...Anthems...Ever! [1997]\CD2\13. Stone Roses - Fools Gold.wav     Pre-gap length  0:00:00.36     Peak level 98.8 %     Extraction speed 5.1 X     Track quality 100.0 %     Test CRC F55A87D2     Copy CRC F55A87D2     Track not present in AccurateRip database     Copy OKTrack 14     Filename D:\My torrents\The Best...Anthems...Ever! [1997]\CD2\14. Levellers - Hope Street.wav     Pre-gap length  0:00:00.36     Peak level 98.0 %     Extraction speed 5.5 X     Track quality 100.0 %     Test CRC F964B3A3     Copy CRC F964B3A3     Track not present in AccurateRip database     Copy OKTrack 15     Filename D:\My torrents\The Best...Anthems...Ever! [1997]\CD2\15. McAlmont + Butler - Yes.wav     Pre-gap length  0:00:00.36     Peak level 92.4 %     Extraction speed 5.6 X     Track quality 100.0 %     Test CRC E9DCC5DF     Copy CRC E9DCC5DF     Track not present in AccurateRip database     Copy OKTrack 16     Filename D:\My torrents\The Best...Anthems...Ever! [1997]\CD2\16. Mansun - Wide Open Space.wav     Pre-gap length  0:00:00.36     Peak level 98.5 %     Extraction speed 5.7 X     Track quality 100.0 %     Test CRC B19C7975     Copy CRC B19C7975     Track not present in AccurateRip database     Copy OKTrack 17     Filename D:\My torrents\The Best...Anthems...Ever! [1997]\CD2\17. David Bowie - Heroes.wav     Pre-gap length  0:00:00.36     Peak level 98.4 %     Extraction speed 5.0 X     Track quality 99.9 %     Test CRC BAD78509     Copy CRC BAD78509     Track not present in AccurateRip database     Copy OKTrack 18     Filename D:\My torrents\The Best...Anthems...Ever! [1997]\CD2\18. Blur - Song 2.wav     Pre-gap length  0:00:00.36     Peak level 98.5 %     Extraction speed 5.2 X     Track quality 100.0 %     Test CRC 2C75B8AC     Copy CRC 2C75B8AC     Track not present in AccurateRip database     Copy OKTrack 19     Filename D:\My torrents\The Best...Anthems...Ever! [1997]\CD2\19. Supergrass - Caught By The Fuzz.wav     Pre-gap length  0:00:00.36     Peak level 95.5 %     Extraction speed 5.4 X     Track quality 100.0 %     Test CRC 7C0AAEC7     Copy CRC 7C0AAEC7     Track not present in AccurateRip database     Copy OKTrack 20     Filename D:\My torrents\The Best...Anthems...Ever! [1997]\CD2\20. Iggy Pop - Lust For Life.wav     Pre-gap length  0:00:00.36     Peak level 98.0 %     Extraction speed 5.8 X     Track quality 100.0 %     Test CRC E0E29777     Copy CRC E0E29777     Track not present in AccurateRip database     Copy OKTrack 21     Filename D:\My torrents\The Best...Anthems...Ever! [1997]\CD2\21. PF Project Feat. Ewan McGregor - Choose Life.wav     Pre-gap length  0:00:00.36     Peak level 98.2 %     Extraction speed 5.7 X     Track quality 100.0 %     Test CRC 8648886A     Copy CRC 8648886A     Track not present in AccurateRip database     Copy OKNone of the tracks are present in the AccurateRip databaseNo errors occurredEnd of status report---- CUETools DB Plugin V2.1.6[CTDB TOCID: o6vfgZHCiZ2faQgIYC60sK5.Y9U-] foundSubmit result: o6vfgZHCiZ2faQgIYC60sK5.Y9U- has been confirmedTrack | CTDB Status  1   | (2/2) Accurately ripped  2   | (2/2) Accurately ripped  3   | (2/2) Accurately ripped  4   | (2/2) Accurately ripped  5   | (2/2) Accurately ripped  6   | (2/2) Accurately ripped  7   | (2/2) Accurately ripped  8   | (2/2) Accurately ripped  9   | (2/2) Accurately ripped 10   | (2/2) Accurately ripped 11   | (2/2) Accurately ripped 12   | (2/2) Accurately ripped 13   | (2/2) Accurately ripped 14   | (2/2) Accurately ripped 15   | (2/2) Accurately ripped 16   | (2/2) Accurately ripped 17   | (2/2) Accurately ripped 18   | (2/2) Accurately ripped 19   | (2/2) Accurately ripped 20   | (2/2) Accurately ripped 21   | (2/2) Accurately ripped==== Log checksum 982E6CC4564915F78C65DB52134368CC21F2ED188727850E6CC1A4938A41808C ====

Содержание индексной карты (.CUE) CD2

REM GENRE "Alternative Rock, Leftfield, Brit Pop, Pop Rock, Big Beat"REM DATE 1997REM DISCID 45115915REM COMMENT "ExactAudioCopy v1.3"CATALOG 0000000000000PERFORMER "Various"TITLE "The Best...Anthems...Ever! ╨Д2"REM COMPOSER "Various"FILE "01. The Verve - The Drugs Don't Work.flac" WAVE  TRACK 01 AUDIO    TITLE "The Drugs Don't Work"    PERFORMER "The Verve"    REM COMPOSER "Various"    INDEX 01 00:00:00  TRACK 02 AUDIO    TITLE "Street Spirit (Fade Out)"    PERFORMER "Radiohead"    REM COMPOSER "Various"    INDEX 00 04:44:43FILE "02. Radiohead - Street Spirit (Fade Out).flac" WAVE    INDEX 01 00:00:00  TRACK 03 AUDIO    TITLE "There She Goes"    PERFORMER "The La's"    REM COMPOSER "Various"    INDEX 00 04:11:71FILE "03. The La's - There She Goes.flac" WAVE    INDEX 01 00:00:00  TRACK 04 AUDIO    TITLE "Stupid Girl"    PERFORMER "Garbage"    REM COMPOSER "Various"    INDEX 00 02:41:14FILE "04. Garbage - Stupid Girl.flac" WAVE    INDEX 01 00:00:00  TRACK 05 AUDIO    TITLE "Disco 2000"    PERFORMER "Pulp"    REM COMPOSER "Various"    INDEX 00 04:18:68FILE "05. Pulp - Disco 2000.flac" WAVE    INDEX 01 00:00:00  TRACK 06 AUDIO    TITLE "Trash"    PERFORMER "Suede"    REM COMPOSER "Various"    INDEX 00 04:48:36FILE "06. Suede - Trash.flac" WAVE    INDEX 01 00:00:00  TRACK 07 AUDIO    TITLE "Sit Down"    PERFORMER "James"    REM COMPOSER "Various"    INDEX 00 04:02:57FILE "07. James - Sit Down.flac" WAVE    INDEX 01 00:00:00  TRACK 08 AUDIO    TITLE "Alright"    PERFORMER "Cast"    REM COMPOSER "Various"    INDEX 00 04:01:61FILE "08. Cast - Alright.flac" WAVE    INDEX 01 00:00:00  TRACK 09 AUDIO    TITLE "Life Of Riley"    PERFORMER "The Lightning Seeds"    REM COMPOSER "Various"    INDEX 00 03:33:59FILE "09. The Lightning Seeds - Life Of Riley.flac" WAVE    INDEX 01 00:00:00  TRACK 10 AUDIO    TITLE "The Changingman"    PERFORMER "Paul Weller"    REM COMPOSER "Various"    INDEX 00 02:46:30FILE "10. Paul Weller - The Changingman.flac" WAVE    INDEX 01 00:00:00  TRACK 11 AUDIO    TITLE "Novocaine For The Soul"    PERFORMER "Eels"    REM COMPOSER "Various"    INDEX 00 02:51:03FILE "11. Eels - Novocaine For The Soul.flac" WAVE    INDEX 01 00:00:00  TRACK 12 AUDIO    TITLE "Peaches"    PERFORMER "The Presidents Of The United States Of America"    REM COMPOSER "Various"    INDEX 00 03:06:44FILE "12. The Presidents Of The United States Of America - Peaches.flac" WAVE    INDEX 01 00:00:00  TRACK 13 AUDIO    TITLE "Fools Gold"    PERFORMER "Stone Roses"    REM COMPOSER "Various"    INDEX 00 02:49:53FILE "13. Stone Roses - Fools Gold.flac" WAVE    INDEX 01 00:00:00  TRACK 14 AUDIO    TITLE "Hope Street"    PERFORMER "Levellers"    REM COMPOSER "Various"    INDEX 00 03:03:18FILE "14. Levellers - Hope Street.flac" WAVE    INDEX 01 00:00:00  TRACK 15 AUDIO    TITLE "Yes"    PERFORMER "McAlmont / Butler"    REM COMPOSER "Various"    INDEX 00 03:58:51FILE "15. McAlmont + Butler - Yes.flac" WAVE    INDEX 01 00:00:00  TRACK 16 AUDIO    TITLE "Wide Open Space"    PERFORMER "Mansun"    REM COMPOSER "Various"    INDEX 00 03:57:45FILE "16. Mansun - Wide Open Space.flac" WAVE    INDEX 01 00:00:00  TRACK 17 AUDIO    TITLE "Heroes"    PERFORMER "David Bowie"    REM COMPOSER "Various"    INDEX 00 04:01:01FILE "17. David Bowie - Heroes.flac" WAVE    INDEX 01 00:00:00  TRACK 18 AUDIO    TITLE "Song 2"    PERFORMER "Blur"    REM COMPOSER "Various"    INDEX 00 03:31:48FILE "18. Blur - Song 2.flac" WAVE    INDEX 01 00:00:00  TRACK 19 AUDIO    TITLE "Caught By The Fuzz"    PERFORMER "Supergrass"    REM COMPOSER "Various"    INDEX 00 02:00:38FILE "19. Supergrass - Caught By The Fuzz.flac" WAVE    INDEX 01 00:00:00  TRACK 20 AUDIO    TITLE "Lust For Life"    PERFORMER "Iggy Pop"    REM COMPOSER "Various"    INDEX 00 02:16:43FILE "20. Iggy Pop - Lust For Life.flac" WAVE    INDEX 01 00:00:00  TRACK 21 AUDIO    TITLE "Choose Life"    PERFORMER "PF Project Feat. Ewan McGregor"    REM COMPOSER "Various"    INDEX 00 03:16:23FILE "21. PF Project Feat. Ewan McGregor - Choose Life.flac" WAVE    INDEX 01 00:00:00

Лог проверки качества CD2

AUDIOCHECKER v2.0 beta (build 457) - by Dester - opdester@freemail.hu~~~~~~~~~~~~~~~~~~~~~~~~~~~~~~~~~~-=== DO NOT EDIT THIS FILE! ===-Path: ...\CD201 -=- 01. The Verve - The Drugs Don't Work.flac -=- CDDA (100%)02 -=- 02. Radiohead - Street Spirit (Fade Out).flac -=- CDDA (100%)03 -=- 03. The La's - There She Goes.flac -=- CDDA (100%)04 -=- 04. Garbage - Stupid Girl.flac -=- CDDA (100%)05 -=- 05. Pulp - Disco 2000.flac -=- CDDA (100%)06 -=- 06. Suede - Trash.flac -=- CDDA (100%)07 -=- 07. James - Sit Down.flac -=- CDDA (100%)08 -=- 08. Cast - Alright.flac -=- CDDA (100%)09 -=- 09. The Lightning Seeds - Life Of Riley.flac -=- CDDA (100%)10 -=- 10. Paul Weller - The Changingman.flac -=- CDDA (100%)11 -=- 11. Eels - Novocaine For The Soul.flac -=- CDDA (100%)12 -=- 12. The Presidents Of The United States Of America - Peaches.flac -=- CDDA (100%)13 -=- 13. Stone Roses - Fools Gold.flac -=- CDDA (100%)14 -=- 14. Levellers - Hope Street.flac -=- CDDA (100%)15 -=- 15. McAlmont + Butler - Yes.flac -=- CDDA (100%)16 -=- 16. Mansun - Wide Open Space.flac -=- CDDA (100%)17 -=- 17. David Bowie - Heroes.flac -=- CDDA (100%)18 -=- 18. Blur - Song 2.flac -=- CDDA (100%)19 -=- 19. Supergrass - Caught By The Fuzz.flac -=- CDDA (100%)20 -=- 20. Iggy Pop - Lust For Life.flac -=- CDDA (100%)21 -=- 21. PF Project Feat. Ewan McGregor - Choose Life.flac -=- CDDA (100%)Summary 100,00% CDDA26630724

Замер динамического диапазона (DR) CD2

foobar2000 1.3.10 / Замер динамического диапазона (DR) 1.1.1
Дата отчёта: 2019-05-12 11:51:34--------------------------------------------------------------------------------
Анализ: Blur / The Best...Anthems...Ever! СD2 (1)
Cast / The Best...Anthems...Ever! СD2 (2)
David Bowie / The Best...Anthems...Ever! СD2 (3)
Eels / The Best...Anthems...Ever! СD2 (4)
Garbage / The Best...Anthems...Ever! СD2 (5)
Iggy Pop / The Best...Anthems...Ever! СD2 (6)
James / The Best...Anthems...Ever! СD2 (7)
Levellers / The Best...Anthems...Ever! СD2 (8)
Mansun / The Best...Anthems...Ever! СD2 (9)
McAlmont / Butler / The Best...Anthems...Ever! СD2 (10)
Paul Weller / The Best...Anthems...Ever! СD2 (11)
PF Project Feat. Ewan McGregor / The Best...Anthems...Ever! СD2 (12)
Pulp / The Best...Anthems...Ever! СD2 (13)
Radiohead / The Best...Anthems...Ever! СD2 (14)
Stone Roses / The Best...Anthems...Ever! СD2 (15)
Suede / The Best...Anthems...Ever! СD2 (16)
Supergrass / The Best...Anthems...Ever! СD2 (17)
The La's / The Best...Anthems...Ever! СD2 (18)
The Lightning Seeds / The Best...Anthems...Ever! СD2 (19)
The Presidents Of The United States Of America / The Best...Anthems...Ever! СD2 (20)
The Verve / The Best...Anthems...Ever! СD2 (21)
--------------------------------------------------------------------------------DR Пики RMS Продолжительность трека
--------------------------------------------------------------------------------
DR7 -0.12 дБ -9.43 дБ 2:01 18-Song 2
DR8 -0.12 дБ -9.34 дБ 3:34 08-Alright
DR11 -0.14 дБ -12.12 дБ 3:32 17-Heroes
DR8 -0.17 дБ -10.10 дБ 3:07 11-Novocaine For The Soul
DR8 -0.17 дБ -9.38 дБ 4:19 04-Stupid Girl
DR10 -0.17 дБ -11.30 дБ 3:17 20-Lust For Life
DR11 -0.08 дБ -11.90 дБ 4:02 07-Sit Down
DR9 -0.17 дБ -11.41 дБ 3:59 14-Hope Street
DR7 -0.13 дБ -9.16 дБ 4:01 16-Wide Open Space
DR9 -0.68 дБ -11.47 дБ 3:58 15-Yes
DR9 -1.08 дБ -11.82 дБ 2:52 10-The Changingman
DR7 -0.15 дБ -9.07 дБ 3:50 21-Choose Life
DR7 -2.39 дБ -10.86 дБ 4:49 05-Disco 2000
DR8 -0.14 дБ -9.88 дБ 4:12 02-Street Spirit (Fade Out)
DR12 -0.10 дБ -14.39 дБ 3:04 13-Fools Gold
DR8 -0.53 дБ -10.09 дБ 4:03 06-Trash
DR9 -0.39 дБ -10.20 дБ 2:17 19-Caught By The Fuzz
DR8 -0.11 дБ -9.67 дБ 2:42 03-There She Goes
DR9 -0.09 дБ -10.76 дБ 2:47 09-Life Of Riley
DR8 -1.30 дБ -11.42 дБ 2:50 12-Peaches
DR8 -0.11 дБ -10.35 дБ 4:45 01-The Drugs Don't Work
--------------------------------------------------------------------------------Количество треков: 21
Реальные значения DR: DR8Частота: 44100 Гц
Каналов: 2
Разрядность: 16
Битрейт: 927 кбит/с
Кодек: FLAC
================================================================================

Чтобы скачать этот контент, Вам необходимо:
1. Скачать и установить торрент-клиент [клик для Windows], (для мобильного найдите на Play Маркет).
2. Кликнуть по [Скачать]


Внимание.
Если проверка ВЫ НЕ РОБОТ - не работает, значит Вы используете устаревший браузер.
Установите актуальный браузер и повторно кликните по [Скачать]
Безопасность: торрент-клиент разрешён АВ Касперского.

[asmlocator.ru].t667375.torrent 
Торрент: Зарегистрирован [ 2019-09-30 23:30 ] · 5B80EFE692E18DCC7A4AF43E2674DEB1AD79EB47

Скачать .torrent

Скачать

17 KB

Статус: проверено
Скачан: 0 раз
Размер: 1.19 GB
terms.php
[Профиль] [ЛС]
Показать сообщения:    
Ответить на тему

Текущее время: 29-Янв 19:13

Часовой пояс: UTC ± 0



Вы не можете начинать темы
Вы не можете отвечать на сообщения
Вы не можете редактировать свои сообщения
Вы не можете удалять свои сообщения
Вы не можете голосовать в опросах
Вы не можете прикреплять файлы к сообщениям
Вы можете скачивать файлы
Верим фактам, а не вранью Путина! Факт, что Правительство ведёт Россию к истреблению.
Так как численность населения падает, даже не смотря на приток эмигрантов!
Русская нация вымирает и вырождается, смешиваясь с эмигрантами!
Факт, что военных и граждан предприятий заставляют голосовать за партию Единая Россия и Путина
ПОД СТРАХОМ УВОЛЬНЕНИЯ!
Нам не нужно Правительство, блокирующее личную жизнь, интернет, нарушающее сохранность данных.
Все эти действия финансируются за счёт народа!