Дымная трава / Kemurikusa [TV] [12 из 12] [Без хардсаба] [RUS(ext), JAP+SUB] [2019, Фантастика, Фэнтези, Приключения, BDRip] [1080p]

Ответить на тему
Статистика раздачи
Размер:  12.78 GB   |    Зарегистрирован:  4 месяца 24 дня   |    Скачан:  0 раз

Полного источника не было: Никогда

 
   
 
 
Автор Сообщение

star21 ®

Пол: Женский

Стаж: 4 года 3 месяца

Сообщений: 551946

Откуда: Екатеринбург

Создавать темы 28-Сен-2019 07:55

[Цитировать]

Страна: Япония
Год выпуска: 2019
Жанр: Фантастика, Фэнтези, Приключения
Тип: TV
Продолжительность: 12 эп. по ~24 мин.
Режиссер: Тацуки
Студия: YaoyorozuОзвучка:
1. Студия KANSAI (многоголосая, закадровая) — Сэмпл
2. AniLibria (двухголосая, закадровая) — Сэмпл
Муж. — Malevich
Жен. — SlivciS
3. AniDub (двухголосая, закадровая) — Сэмпл
Муж. — Gecep
Жен. — Vel
Субтитры:
1. AniPlay
Переводчик: Hariken
2. Crunchyroll ENG
Описание: Сёстры, каждая из которых обладает своими уникальными способностями, пытаются выжить в пост-апокалиптическом мире, пропитанном ядовитым красным туманом и населённом опасными механическими жуками. В поисках воды они путешествуют по окрестностям, когда внезапно натыкаются на человеческого мальчика, абсолютно не помнящего, что с ним случилось...Качество: BDRip
Тип релиза: Без хардсаба, без линковки
Формат видео: MKV
Автор рипа: LowPower-Raws
Видео: AVC, 1920x1080, 3816 kbps, 23,976fps, 8 bit
Аудио: FLAC, 671 kbps, 48 Hz, 2 ch, JAP (в составе контейнера)
Аудио: FLAC, 595 kbps, 48 Hz, 2 ch, JAP (в составе контейнера) - Commentaries: 1-12
Аудио: FLAC, 534 kbps, 48 Hz, 2 ch, JAP (в составе контейнера) - Commentaries: 1-12
Аудио: FLAC, 593 kbps, 48 Hz, 2 ch, JAP (в составе контейнера) - Commentaries: 12
Аудио 1: AC3, 192 kbps, 48 Hz, 2 ch, RUS (внешним файлом)
Аудио 2: AC3, 192 kbps, 48 Hz, 2 ch, RUS (внешним файлом)
Аудио 3: AC3, 192 kbps, 48 Hz, 2 ch, RUS (внешним файлом)
Субтитры 1: ASS, RUS (внешним файлом)
Субтитры 2: ASS, ENG (внешним файлом)Перевод на английский в конце 12 серии, после эндинга, отсувствует.

Подробные тех. данные

ОбщееУникальный идентификатор                 : 292075092530572147400560790054264215738 (0xDBBB9DDE2DC8E82B0E5C9052B81D98BA)Полное имя                               : E:\RUTRACKER\[LowPower-Raws] Kemurikusa\Kemurikusa - 01.mkvФормат                                   : MatroskaВерсия формата                           : Version 2Размер файла                             : 953 МбайтПродолжительность                        : 23 м. 43 с.Режим общего битрейта                    : ПеременныйОбщий поток                              : 5618 Кбит/секДата кодирования                         : UTC 2019-08-01 05:04:05Программа кодирования                    : mkvmerge v34.0.0 ('Sight and Seen') 64-bitБиблиотека кодирования                   : libebml v1.3.7 + libmatroska v1.5.0ВидеоИдентификатор                            : 1Формат                                   : AVCФормат/Информация                        : Advanced Video CodecПрофиль формата                          : High@L5Настройки формата                        : CABAC / 10 Ref FramesПараметр CABAC формата                   : ДаПараметр RefFrames формата               : 10 кадровИдентификатор кодека                     : V_MPEG4/ISO/AVCПродолжительность                        : 23 м. 43 с.Битрейт                                  : 3816 Кбит/секШирина                                   : 1920 пикселейВысота                                   : 1080 пикселейСоотношение сторон                       : 16:9Режим частоты кадров                     : ПостоянныйЧастота кадров                           : 23,976 (24000/1001) кадра/секЦветовое пространство                    : YUVСубдискретизация насыщенности            : 4:2:0Битовая глубина                          : 8 битТип развёртки                            : ПрогрессивнаяБит/(Пиксели*Кадры)                      : 0.077Размер потока                            : 648 Мбайт (68%)Библиотека кодирования                   : x264 core 155 r2917+44 ba48085 Yuuki [all-bit@all X86_64][GCC 8.2.1]Настройки программы                      : cabac=1 / ref=10 / deblock=1:0:0 / analyse=0x3:0x113 / me=umh / subme=9 / psy=1 / psy_rd=0.80:0.25 / mixed_ref=1 / me_range=32 / chroma_me=1 / trellis=1 / 8x8dct=1 / cqm=0 / deadzone=21,11 / fast_pskip=0 / chroma_qp_offset=-4 / threads=12 / lookahead_threads=1 / sliced_threads=0 / nr=0 / decimate=1 / interlaced=0 / bluray_compat=0 / constrained_intra=0 / fgo=0 / bframes=8 / b_pyramid=2 / b_adapt=1 / b_bias=0 / direct=1 / weightb=1 / open_gop=0 / weightp=2 / keyint=250 / keyint_min=23 / scenecut=40 / intra_refresh=0 / rc_lookahead=70 / rc=crf / mbtree=1 / crf=17.0000 / qcomp=0.60 / qpmin=0:0:0 / qpmax=69:69:69 / qpstep=4 / ip_ratio=1.40 / aq=3:0.80Default                                  : ДаForced                                   : НетАудио #1Идентификатор                            : 2Формат                                   : FLACФормат/Информация                        : Free Lossless Audio CodecИдентификатор кодека                     : A_FLACПродолжительность                        : 23 м. 43 с.Вид битрейта                             : ПеременныйБитрейт                                  : 671 Кбит/секКаналы                                   : 2 каналаChannelLayout                            : L RЧастота                                  : 48,0 КГцЧастота кадров                           : 11,719 кадров/сек (4096 SPF)Битовая глубина                          : 16 битМетод сжатия                             : Без потерьРазмер потока                            : 114 Мбайт (12%)Библиотека кодирования                   : libFLAC 1.2.1 (UTC 2007-09-17)Язык                                     : JapaneseDefault                                  : ДаForced                                   : НетАудио #2Идентификатор                            : 3Формат                                   : FLACФормат/Информация                        : Free Lossless Audio CodecИдентификатор кодека                     : A_FLACПродолжительность                        : 23 м. 43 с.Вид битрейта                             : ПеременныйБитрейт                                  : 595 Кбит/секКаналы                                   : 2 каналаChannelLayout                            : L RЧастота                                  : 48,0 КГцЧастота кадров                           : 11,719 кадров/сек (4096 SPF)Битовая глубина                          : 16 битМетод сжатия                             : Без потерьРазмер потока                            : 101 Мбайт (11%)Библиотека кодирования                   : libFLAC 1.2.1 (UTC 2007-09-17)Язык                                     : JapaneseDefault                                  : НетForced                                   : НетАудио #3Идентификатор                            : 4Формат                                   : FLACФормат/Информация                        : Free Lossless Audio CodecИдентификатор кодека                     : A_FLACПродолжительность                        : 23 м. 43 с.Вид битрейта                             : ПеременныйБитрейт                                  : 534 Кбит/секКаналы                                   : 2 каналаChannelLayout                            : L RЧастота                                  : 48,0 КГцЧастота кадров                           : 11,719 кадров/сек (4096 SPF)Битовая глубина                          : 16 битМетод сжатия                             : Без потерьРазмер потока                            : 90,6 Мбайт (10%)Библиотека кодирования                   : libFLAC 1.2.1 (UTC 2007-09-17)Язык                                     : JapaneseDefault                                  : НетForced                                   : Нет

Список эпизодов

01. Episode 1
02. Episode 2
03. Episode 3
04. Episode 4
05. Episode 5
06. Episode 6
07. Episode 7
08. Episode 8
09. Episode 9
10. Episode 10
11. Episode 11
12. Episode 12

Отличия

https://rutracker.org/forum/viewtopic.php?t=5710755 — BDRip, наличие озвучка

Скриншоты

Чтобы скачать этот контент, Вам необходимо:
1. Скачать и установить торрент-клиент [клик для Windows], (для мобильного найдите на Play Маркет).
2. Кликнуть по [Скачать]


Внимание.
Если проверка ВЫ НЕ РОБОТ - не работает, значит Вы используете устаревший браузер.
Установите актуальный браузер и повторно кликните по [Скачать]
Безопасность: торрент-клиент разрешён АВ Касперского.

[asmlocator.ru].t666385.torrent 
Торрент: Зарегистрирован [ 2019-09-28 07:55 ] · 899A514901DE487FAA91BB1E3C5573BB4DA93F47

Скачать .torrent

Скачать

69 KB

Статус: проверено
Скачан: 0 раз
Размер: 12.78 GB
terms.php
[Профиль] [ЛС]
Показать сообщения:    
Ответить на тему

Текущее время: 22-Фев 20:11

Часовой пояс: UTC ± 0



Вы не можете начинать темы
Вы не можете отвечать на сообщения
Вы не можете редактировать свои сообщения
Вы не можете удалять свои сообщения
Вы не можете голосовать в опросах
Вы не можете прикреплять файлы к сообщениям
Вы можете скачивать файлы
Верим фактам, а не вранью Путина! Факт, что Правительство ведёт Россию к истреблению.
Так как численность населения падает, даже не смотря на приток эмигрантов!
Русская нация вымирает и вырождается, смешиваясь с эмигрантами!
Факт, что военных и граждан предприятий заставляют голосовать за партию Единая Россия и Путина
ПОД СТРАХОМ УВОЛЬНЕНИЯ!
Нам не нужно Правительство, блокирующее личную жизнь, интернет, нарушающее сохранность данных.
Все эти действия финансируются за счёт народа!