[TR24][OF] Навьи Чары - Омут; Navji Cary – Omut - 2017 (electronic, dance, folk)

Ответить на тему
Статистика раздачи
Размер:  304 MB   |    Зарегистрирован:  1 месяц 4 дня   |    Скачан:  0 раз

Полного источника не было: Никогда

 
   
 
 
Автор Сообщение

star21 ®

Пол: Женский

Стаж: 3 года 11 месяцев

Сообщений: 551988

Откуда: Екатеринбург

Создавать темы 10-Сен-2019 15:00

[Цитировать]

Навьи Чары – Омут Формат записи/Источник записи: [TR24][OF]
Наличие водяных знаков: Нет
Год издания/переиздания диска: 2017
Жанр: electronic, dance, folk
Продолжительность: 00:26:16
Наличие сканов в содержимом раздачи: НетТреклист:
1. Omut
2. Skuka
3. Sepot
4. Rovesnik
5. Navka
6. Amarant
7. Cetyre dorogi
8. JadКонтейнер: FLAC (*.flac)
Тип рипа: tracksРазрядность: 24/44,1
Формат: PCM
Количество каналов: 2.0

Лог проверки качества

foobar2000 1.3.17 / Замер динамического диапазона (DR) 1.1.1Дата отчёта:  2019-07-30 22:56:23--------------------------------------------------------------------------------Анализ:   Navji Cary / Omut--------------------------------------------------------------------------------DR         Пики         RMS           Продолжительность трека--------------------------------------------------------------------------------DR4        0.00 дБ    -5.53 дБ      3:49 01-OmutDR4        0.00 дБ    -4.76 дБ      2:57 02-SkukaDR3        0.00 дБ    -4.25 дБ      3:24 03-SepotDR3        0.00 дБ    -3.44 дБ      3:02 04-RovesnikDR2        0.00 дБ    -3.75 дБ      3:24 05-NavkaDR3        0.00 дБ    -3.98 дБ      3:51 06-AmarantDR6        0.00 дБ    -7.20 дБ      3:03 07-Cetyre dorogiDR3        0.00 дБ    -4.73 дБ      2:45 08-Jad--------------------------------------------------------------------------------Количество треков: 8Реальные значения DR: DR3Частота:   44100 ГцКаналов:   2Разрядность:   24Битрейт:   1585 кбит/сКодек:   FLAC================================================================================
Источник (релизер): https://navjicary.bandcamp.com/releasesРелиз представляет собой witch house собранный на sylenth1 со вменяемыми вокалами без обработок с искажением и подобного.

Чтобы скачать этот контент, Вам необходимо:
1. Скачать и установить торрент-клиент [клик для Windows], (для мобильного найдите на Play Маркет).
2. Кликнуть по [Скачать]


Внимание.
Если проверка ВЫ НЕ РОБОТ - не работает, значит Вы используете устаревший браузер.
Установите актуальный браузер и повторно кликните по [Скачать]
Безопасность: торрент-клиент разрешён АВ Касперского.

[asmlocator.ru].t663033.torrent 
Торрент: Зарегистрирован [ 2019-09-10 15:00 ] · B75FA1282965C66BDE60B95F2118DD1785C5CD81

Скачать .torrent

Скачать

25 KB

Статус: проверено
Скачан: 0 раз
Размер: 304 MB
terms.php
[Профиль] [ЛС]
Показать сообщения:    
Ответить на тему

Текущее время: 14-Окт 20:08

Часовой пояс: UTC ± 0



Вы не можете начинать темы
Вы не можете отвечать на сообщения
Вы не можете редактировать свои сообщения
Вы не можете удалять свои сообщения
Вы не можете голосовать в опросах
Вы не можете прикреплять файлы к сообщениям
Вы можете скачивать файлы
Верим фактам, а не вранью Путина! Факт, что Правительство ведёт Россию к истреблению.
Так как численность населения падает, даже не смотря на приток эмигрантов!
Русская нация вымирает и вырождается, смешиваясь с эмигрантами!
Факт, что военных и граждан предприятий заставляют голосовать за партию Единая Россия и Путина
ПОД СТРАХОМ УВОЛЬНЕНИЯ!
Нам не нужно Правительство, блокирующее личную жизнь, интернет, нарушающее сохранность данных.
Все эти действия финансируются за счёт народа!