(No-Wave, Industrial, Synthpop) [CD] Holger Hiller - As Is - 1991, FLAC (tracks+.cue), lossless

Ответить на тему
Статистика раздачи
Размер:  222 MB   |    Зарегистрирован:  4 месяца 16 дней   |    Скачан:  0 раз

Полного источника не было: Никогда

 
   
 
 
Автор Сообщение

star21 ®

Пол: Женский

Стаж: 4 года 2 месяца

Сообщений: 551946

Откуда: Екатеринбург

Создавать темы 10-Сен-2019 08:40

[Цитировать]

Holger Hiller / As Is Жанр: No-Wave, Industrial, Synthpop
Носитель: CD
Страна-производитель диска (релиза): Great Britain
Год издания: 1991
Издатель (лейбл): Mute
Номер по каталогу: cd stumm 60
Аудиокодек: FLAC (*.flac)
Тип рипа: tracks+.cue
Продолжительность: 39:13
Источник: собственный рип
Наличие сканов в содержимом раздачи: обложка
Треклист:
1. Koniginnen 3:50
2. Sing Songs 2:13
3. Bacillus Culture 4:34
4. Sur La Tete 1:08
5. Neighbours 3:21
6. Abacus 3:08
7. Gut Und Bose 4:28
8. You 4:13
9. Mosaik 3:12
10. Egg 3:15
11. Trojan Ponies 1:46
12. Cuts Both Ways 4:02

Лог создания рипа

Exact Audio Copy V1.3 from 2. September 2016EAC extraction logfile from 11. July 2019, 20:23Holger Hiller / As IsUsed drive  : PIONEER BD-RW   BDR-202   Adapter: 1  ID: 0Read mode               : SecureUtilize accurate stream : YesDefeat audio cache      : YesMake use of C2 pointers : NoRead offset correction                      : 667Overread into Lead-In and Lead-Out          : YesFill up missing offset samples with silence : YesDelete leading and trailing silent blocks   : NoNull samples used in CRC calculations       : YesUsed interface                              : Native Win32 interface for Win NT & 2000Gap handling                                : Appended to previous trackUsed output format              : User Defined EncoderSelected bitrate                : 1024 kBit/sQuality                         : HighAdd ID3 tag                     : NoCommand line compressor         : C:\Program Files (x86)\Exact Audio Copy\FLAC\FLAC.EXEAdditional command line options : -8 -V -T "ARTIST=%artist%" -T "TITLE=%title%" -T "ALBUM=%albumtitle%" -T "DATE=%year%" -T "TRACKNUMBER=%tracknr%" -T "GENRE=%genre%" -T "COMMENT=%comment%" -T "BAND=%albuminterpret%" -T "ALBUMARTIST=%albuminterpret%" -T "COMPOSER=%composer%" %haslyrics%--tag-from-file=LYRICS="%lyricsfile%"%haslyrics% -T "DISCNUMBER=%cdnumber%" -T "TOTALDISCS=%totalcds%" -T "TOTALTRACKS=%numtracks%" %hascover%--picture="%coverfile%"%hascover% %source% -o %dest%TOC of the extracted CD     Track |   Start  |  Length  | Start sector | End sector    ---------------------------------------------------------        1  |  0:00.17 |  3:50.25 |        17    |    17291        2  |  3:50.42 |  2:13.30 |     17292    |    27296        3  |  6:03.72 |  4:34.10 |     27297    |    47856        4  | 10:38.07 |  1:08.10 |     47857    |    52966        5  | 11:46.17 |  3:21.05 |     52967    |    68046        6  | 15:07.22 |  3:08.15 |     68047    |    82161        7  | 18:15.37 |  4:28.45 |     82162    |   102306        8  | 22:44.07 |  4:13.00 |    102307    |   121281        9  | 26:57.07 |  3:12.40 |    121282    |   135721       10  | 30:09.47 |  3:15.60 |    135722    |   150406       11  | 33:25.32 |  1:46.45 |    150407    |   158401       12  | 35:12.02 |  4:02.03 |    158402    |   176554Track  1     Filename E:\Holger Hiller\Holger Hiller - [1991] - As Is\01 - Koniginnen.wav     Pre-gap length  0:00:02.17     Peak level 90.4 %     Extraction speed 3.9 X     Track quality 100.0 %     Test CRC 9ED3955B     Copy CRC 9ED3955B     Accurately ripped (confidence 4)  [4ED4EA15]  (AR v2)     Copy OKTrack  2     Filename E:\Holger Hiller\Holger Hiller - [1991] - As Is\02 - Sing Songs.wav     Pre-gap length  0:00:02.60     Peak level 81.1 %     Extraction speed 3.8 X     Track quality 100.0 %     Test CRC C81A1684     Copy CRC C81A1684     Accurately ripped (confidence 4)  [31784AA8]  (AR v2)     Copy OKTrack  3     Filename E:\Holger Hiller\Holger Hiller - [1991] - As Is\03 - Bacillus Culture.wav     Pre-gap length  0:00:06.15     Peak level 80.8 %     Extraction speed 4.6 X     Track quality 100.0 %     Test CRC 4F756340     Copy CRC 4F756340     Accurately ripped (confidence 4)  [3AF19A04]  (AR v2)     Copy OKTrack  4     Filename E:\Holger Hiller\Holger Hiller - [1991] - As Is\04 - Sur La Tete.wav     Pre-gap length  0:00:06.42     Peak level 75.7 %     Extraction speed 3.5 X     Track quality 100.0 %     Test CRC 2564D266     Copy CRC 2564D266     Accurately ripped (confidence 4)  [D7C7B8BA]  (AR v2)     Copy OKTrack  5     Filename E:\Holger Hiller\Holger Hiller - [1991] - As Is\05 - Neighbours.wav     Pre-gap length  0:00:06.30     Peak level 80.7 %     Extraction speed 4.8 X     Track quality 100.0 %     Test CRC 73892CEA     Copy CRC 73892CEA     Accurately ripped (confidence 5)  [4279D830]  (AR v2)     Copy OKTrack  6     Filename E:\Holger Hiller\Holger Hiller - [1991] - As Is\06 - Abacus.wav     Pre-gap length  0:00:04.30     Peak level 77.5 %     Extraction speed 4.3 X     Track quality 99.9 %     Test CRC 7513978D     Copy CRC 7513978D     Accurately ripped (confidence 5)  [BF3CBDFE]  (AR v2)     Copy OKTrack  7     Filename E:\Holger Hiller\Holger Hiller - [1991] - As Is\07 - Gut Und Bose.wav     Pre-gap length  0:00:06.17     Peak level 96.3 %     Extraction speed 4.9 X     Track quality 99.9 %     Test CRC 9D63CDA1     Copy CRC 9D63CDA1     Accurately ripped (confidence 4)  [E01C5A6F]  (AR v2)     Copy OKTrack  8     Filename E:\Holger Hiller\Holger Hiller - [1991] - As Is\08 - You.wav     Pre-gap length  0:00:10.55     Peak level 63.5 %     Extraction speed 5.7 X     Track quality 100.0 %     Test CRC 82261F89     Copy CRC 82261F89     Accurately ripped (confidence 4)  [319605AF]  (AR v2)     Copy OKTrack  9     Filename E:\Holger Hiller\Holger Hiller - [1991] - As Is\09 - Mosaik.wav     Pre-gap length  0:00:06.17     Peak level 74.2 %     Extraction speed 5.0 X     Track quality 99.9 %     Test CRC 3CA1027F     Copy CRC 3CA1027F     Accurately ripped (confidence 5)  [8AC374D2]  (AR v2)     Copy OKTrack 10     Filename E:\Holger Hiller\Holger Hiller - [1991] - As Is\10 - Egg.wav     Pre-gap length  0:00:07.40     Peak level 73.5 %     Extraction speed 5.9 X     Track quality 100.0 %     Test CRC E57D42B9     Copy CRC E57D42B9     Accurately ripped (confidence 5)  [4CBDE59B]  (AR v2)     Copy OKTrack 11     Filename E:\Holger Hiller\Holger Hiller - [1991] - As Is\11 - Trojan Pnies.wav     Pre-gap length  0:00:03.57     Peak level 73.8 %     Extraction speed 4.3 X     Track quality 99.9 %     Test CRC 75BCAB0D     Copy CRC 75BCAB0D     Accurately ripped (confidence 4)  [68051041]  (AR v2)     Copy OKTrack 12     Filename E:\Holger Hiller\Holger Hiller - [1991] - As Is\12 - Cuts Both Ways.wav     Pre-gap length  0:00:06.47     Peak level 81.2 %     Extraction speed 6.3 X     Track quality 99.9 %     Test CRC 684EA59A     Copy CRC 684EA59A     Accurately ripped (confidence 5)  [07D52C52]  (AR v2)     Copy OKAll tracks accurately rippedNo errors occurredEnd of status report---- CUETools DB Plugin V2.1.6[CTDB TOCID: fzwEiwJyrktZRr1m8.mLt0VrOYI-] foundSubmit result: fzwEiwJyrktZRr1m8.mLt0VrOYI- has been confirmedTrack | CTDB Status  1   | (5/5) Accurately ripped  2   | (5/5) Accurately ripped  3   | (5/5) Accurately ripped  4   | (5/5) Accurately ripped  5   | (5/5) Accurately ripped  6   | (5/5) Accurately ripped  7   | (5/5) Accurately ripped  8   | (5/5) Accurately ripped  9   | (5/5) Accurately ripped 10   | (5/5) Accurately ripped 11   | (5/5) Accurately ripped 12   | (5/5) Accurately ripped==== Log checksum F267A6E89EAB518DB4E2AA6D1695E9C6329DDA6EDDA56A1AECC2BDC0E78A110F ====

Содержание индексной карты (.CUE)

REM GENRE "New Wave"REM DATE 1991REM DISCID 9009320CREM COMMENT "ExactAudioCopy v1.3"PERFORMER "Holger Hiller"TITLE "As Is"FILE "01 - Koniginnen.wav" WAVE  TRACK 01 AUDIO    TITLE "Koniginnen"    PERFORMER "Holger Hiller"    PREGAP 00:00:17    INDEX 01 00:00:00  TRACK 02 AUDIO    TITLE "Sing Songs"    PERFORMER "Holger Hiller"    INDEX 00 03:47:40FILE "02 - Sing Songs.wav" WAVE    INDEX 01 00:00:00  TRACK 03 AUDIO    TITLE "Bacillus Culture"    PERFORMER "Holger Hiller"    INDEX 00 02:07:15FILE "03 - Bacillus Culture.wav" WAVE    INDEX 01 00:00:00  TRACK 04 AUDIO    TITLE "Sur La Tete"    PERFORMER "Holger Hiller"    INDEX 00 04:27:43FILE "04 - Sur La Tete.wav" WAVE    INDEX 01 00:00:00  TRACK 05 AUDIO    TITLE "Neighbours"    PERFORMER "Holger Hiller"    INDEX 00 01:01:55FILE "05 - Neighbours.wav" WAVE    INDEX 01 00:00:00  TRACK 06 AUDIO    TITLE "Abacus"    PERFORMER "Holger Hiller"    INDEX 00 03:16:50FILE "06 - Abacus.wav" WAVE    INDEX 01 00:00:00  TRACK 07 AUDIO    TITLE "Gut Und Bose"    PERFORMER "Holger Hiller"    INDEX 00 03:01:73FILE "07 - Gut Und Bose.wav" WAVE    INDEX 01 00:00:00  TRACK 08 AUDIO    TITLE "You"    PERFORMER "Holger Hiller"    INDEX 00 04:17:65FILE "08 - You.wav" WAVE    INDEX 01 00:00:00  TRACK 09 AUDIO    TITLE "Mosaik"    PERFORMER "Holger Hiller"    INDEX 00 04:06:58FILE "09 - Mosaik.wav" WAVE    INDEX 01 00:00:00  TRACK 10 AUDIO    TITLE "Egg"    PERFORMER "Holger Hiller"    INDEX 00 03:05:00FILE "10 - Egg.wav" WAVE    INDEX 01 00:00:00  TRACK 11 AUDIO    TITLE "Trojan Pnies"    PERFORMER "Holger Hiller"    INDEX 00 03:12:03FILE "11 - Trojan Pnies.wav" WAVE    INDEX 01 00:00:00  TRACK 12 AUDIO    TITLE "Cuts Both Ways"    PERFORMER "Holger Hiller"    INDEX 00 01:39:73FILE "12 - Cuts Both Ways.wav" WAVE    INDEX 01 00:00:00

Чтобы скачать этот контент, Вам необходимо:
1. Скачать и установить торрент-клиент [клик для Windows], (для мобильного найдите на Play Маркет).
2. Кликнуть по [Скачать]


Внимание.
Если проверка ВЫ НЕ РОБОТ - не работает, значит Вы используете устаревший браузер.
Установите актуальный браузер и повторно кликните по [Скачать]
Безопасность: торрент-клиент разрешён АВ Касперского.

[asmlocator.ru].t662952.torrent 
Торрент: Зарегистрирован [ 2019-09-10 08:40 ] · 0C4A808F0634AC264A7D428EF646B9A093854C8B

Скачать .torrent

Скачать

36 KB

Статус: проверено
Скачан: 0 раз
Размер: 222 MB
terms.php
[Профиль] [ЛС]
Показать сообщения:    
Ответить на тему

Текущее время: 27-Янв 08:05

Часовой пояс: UTC ± 0



Вы не можете начинать темы
Вы не можете отвечать на сообщения
Вы не можете редактировать свои сообщения
Вы не можете удалять свои сообщения
Вы не можете голосовать в опросах
Вы не можете прикреплять файлы к сообщениям
Вы можете скачивать файлы
Верим фактам, а не вранью Путина! Факт, что Правительство ведёт Россию к истреблению.
Так как численность населения падает, даже не смотря на приток эмигрантов!
Русская нация вымирает и вырождается, смешиваясь с эмигрантами!
Факт, что военных и граждан предприятий заставляют голосовать за партию Единая Россия и Путина
ПОД СТРАХОМ УВОЛЬНЕНИЯ!
Нам не нужно Правительство, блокирующее личную жизнь, интернет, нарушающее сохранность данных.
Все эти действия финансируются за счёт народа!