История Венеции (1-2 серии из 2) / Venice: The whole story (Andrea Vogt / Андреа Фогт) [2015, Документальный, DVB] DVO

Ответить на тему
Статистика раздачи
Размер:  1.27 GB   |    Зарегистрирован:  6 месяцев 7 дней   |    Скачан:  0 раз

Полного источника не было: Никогда

 
   
 
 
Автор Сообщение

star21 ®

Пол: Женский

Стаж: 4 года 3 месяца

Сообщений: 551946

Откуда: Екатеринбург

Создавать темы 17-Авг-2019 00:20

[Цитировать]

История Венеции / Venice: The whole story Дата/Год выпуска: 2015
Страна: Германия, A Millstream Films & Media
Жанр: Документальный
Продолжительность: 2 х ~ 00:44:05
Перевод: Профессиональный (двухголосый закадровый)
Доп. инфо о переводе: SDI Media
Режиссер: Andrea Vogt / Андреа ФогтТелеканал: 365 дней
Описание: Вся история о подъеме и падении Венеции, об отчаянной борьбе со временем, чтобы спасти великий город, уходящий под воду. Этот документальный фильм, состоящий из 2-х серий, показывает, как мода, археология и культура объединяются для реконструкции одного из самых известных мостов в мире.Сэмпл: https://www.sendspace.com/file/ko5pooкачество: DVB
формат: TS/M2TS
Видео: 720x576 (16:9) AVC (H.264) High@L3.0, ~ 1783 kbps, 25fps
Аудио: Русский 48 kHz, MPEG Layer 2, 2 ch, ~192.00 kbps avg

Содержание

01. Город на море / City on the Sea
Как мода, археология и культура объединяются для эпического обновления одного из самых известных мостов в мире.
02. Спасение Венеции / Saving Venice
Спорные воздействие больших круизных судов, глобальное изменение климата и другие угрозы для Венецианской лагуны покрыты в глубину.

MediaInfo

Complete name               : F:\Наладки\SD-фильмы\История Венеции\01. Город на море.tsFormat                      : MPEG-TSFile size                   : 656 MiBDuration                    : 44 min 5 sOverall bit rate mode       : VariableOverall bit rate            : 2 080 kb/sVideoID                          : 201 (0xC9)Menu ID                     : 101 (0x65)Format                      : AVCFormat/Info                 : Advanced Video CodecFormat profile              : High@L3Format settings             : CABAC / 4 Ref FramesFormat settings, CABAC      : YesFormat settings, Reference  : 4 framesCodec ID                    : 27Duration                    : 44 min 5 sBit rate                    : 1 783 kb/sWidth                       : 720 pixelsHeight                      : 576 pixelsDisplay aspect ratio        : 16:9Frame rate                  : 25.000 FPSStandard                    : ComponentColor space                 : YUVChroma subsampling          : 4:2:0Bit depth                   : 8 bitsScan type                   : InterlacedScan type, store method     : Separated fieldsScan order                  : Top Field FirstBits/(Pixel*Frame)          : 0.172Stream size                 : 562 MiB (86%)Color range                 : LimitedColor primaries             : BT.601 PALTransfer characteristics    : BT.470 System B/GMatrix coefficients         : BT.470 System B/GAudioID                          : 301 (0x12D)Menu ID                     : 101 (0x65)Format                      : MPEG AudioFormat version              : Version 1Format profile              : Layer 2Codec ID                    : 3Duration                    : 44 min 5 sBit rate mode               : ConstantBit rate                    : 192 kb/sChannel(s)                  : 2 channelsSampling rate               : 48.0 kHzFrame rate                  : 41.667 FPS (1152 SPF)Compression mode            : LossyStream size                 : 60.5 MiB (9%)Language                    : RussianComplete name               : F:\Наладки\SD-фильмы\История Венеции\02. Спасение Венеции.tsFormat                      : MPEG-TSFile size                   : 646 MiBDuration                    : 44 min 8 sOverall bit rate mode       : VariableOverall bit rate            : 2 047 kb/sVideoID                          : 201 (0xC9)Menu ID                     : 101 (0x65)Format                      : AVCFormat/Info                 : Advanced Video CodecFormat profile              : High@L3Format settings             : CABAC / 4 Ref FramesFormat settings, CABAC      : YesFormat settings, Reference  : 4 framesFormat settings, GOP        : M=4, N=28Codec ID                    : 27Duration                    : 44 min 8 sBit rate                    : 1 752 kb/sWidth                       : 720 pixelsHeight                      : 576 pixelsDisplay aspect ratio        : 16:9Frame rate                  : 25.000 FPSStandard                    : ComponentColor space                 : YUVChroma subsampling          : 4:2:0Bit depth                   : 8 bitsScan type                   : InterlacedScan type, store method     : Separated fieldsScan order                  : Top Field FirstBits/(Pixel*Frame)          : 0.169Stream size                 : 553 MiB (86%)Color range                 : LimitedColor primaries             : BT.601 PALTransfer characteristics    : BT.470 System B/GMatrix coefficients         : BT.470 System B/GAudioID                          : 301 (0x12D)Menu ID                     : 101 (0x65)Format                      : MPEG AudioFormat version              : Version 1Format profile              : Layer 2Codec ID                    : 3Duration                    : 44 min 8 sBit rate mode               : ConstantBit rate                    : 192 kb/sChannel(s)                  : 2 channelsSampling rate               : 48.0 kHzFrame rate                  : 41.667 FPS (1152 SPF)Compression mode            : LossyStream size                 : 60.6 MiB (9%)Language                    : Russian

Скриншоты анаморф 1047x576

Чтобы скачать этот контент, Вам необходимо:
1. Скачать и установить торрент-клиент [клик для Windows], (для мобильного найдите на Play Маркет).
2. Кликнуть по [Скачать]


Внимание.
Если проверка ВЫ НЕ РОБОТ - не работает, значит Вы используете устаревший браузер.
Установите актуальный браузер и повторно кликните по [Скачать]
Безопасность: торрент-клиент разрешён АВ Касперского.

[asmlocator.ru].t658079.torrent 
Торрент: Зарегистрирован [ 2019-08-17 00:20 ] · E07AD2EAFB39985A0A510B24E3AD9A191C4C4D26

Скачать .torrent

Скачать

13 KB

Статус: проверено
Скачан: 0 раз
Размер: 1.27 GB
terms.php
[Профиль] [ЛС]
Показать сообщения:    
Ответить на тему

Текущее время: 24-Фев 00:26

Часовой пояс: UTC ± 0



Вы не можете начинать темы
Вы не можете отвечать на сообщения
Вы не можете редактировать свои сообщения
Вы не можете удалять свои сообщения
Вы не можете голосовать в опросах
Вы не можете прикреплять файлы к сообщениям
Вы можете скачивать файлы
Верим фактам, а не вранью Путина! Факт, что Правительство ведёт Россию к истреблению.
Так как численность населения падает, даже не смотря на приток эмигрантов!
Русская нация вымирает и вырождается, смешиваясь с эмигрантами!
Факт, что военных и граждан предприятий заставляют голосовать за партию Единая Россия и Путина
ПОД СТРАХОМ УВОЛЬНЕНИЯ!
Нам не нужно Правительство, блокирующее личную жизнь, интернет, нарушающее сохранность данных.
Все эти действия финансируются за счёт народа!