Большое путешествие (Василий Ровенский, Наталья Нилова) [2019, Россия, США, мультфильм, комедия, приключения, семейный, WEB-DL 1080p]

Ответить на тему
Статистика раздачи
Размер:  2.77 GB   |    Зарегистрирован:  9 месяцев 17 дней   |    Скачан:  1 раз

Полного источника не было: 5 месяцев 16 дней

 
   
 
 
Автор Сообщение

star21 ®

Пол: Женский

Стаж: 4 года 6 месяцев

Сообщений: 551945

Откуда: Екатеринбург

Создавать темы 16-Авг-2019 02:05

[Цитировать]

Большое путешествие Страна: Россия, США
Жанр: мультфильм, комедия, приключения, семейный
Продолжительность: 01:20:20
Год выпуска: 2019
Перевод: Не требуется
Субтитры: нетРежиссер: Василий Ровенский, Наталья НиловаРоли озвучивали: Дмитрий Назаров, Максим Галкин, Филипп Киркоров, Алексей Воробьев, Татьяна Навка, Диомид Виноградов
Описание: Однажды, Бестолковый Аист из центра доставки детей перепутал адреса и вместо Семьи Панд принес Малыша Панду медведю по имени Мик-Мик. Мик-Мик во всем любит порядок и решает доставить Малыша Панду его родителям в Южный Китай. В путешествие с ним увязывается непутевый сосед Заяц Оскар. По дороге они встречают хвастливого Пеликана Дюка, трусливого Волка Януса и романтичного Тигра Амура.
SampleКачество: WEB-DL 1080p - iTunes
Формат: MKVВидео: MPEG4 AVC Video, H264, 2.40:1, 1920x804, 25 fps, 4451 kbps, 0.115 bit/pixel
Аудио: Russian (AC3, 6 ch, 384 kbps, 16 bits, 48.0 KHz)

Подробные технические данные

GeneralUnique ID                   : 254223818142543242511661837893235420506 (0xBF41B9F4F04E6DFBADC46B9DF00CAD5A)Complete name               : D:\Bolishoe.puteshestvie.2019.WEB-DL.1080p.mkvFormat                      : MatroskaFormat version              : Version 2File size                   : 2.77 GiBDuration                    : 1 h 20 minOverall bit rate            : 4 933 kb/sEncoded date                : UTC 2019-06-26 00:16:39Writing application         : mkvmerge v5.8.0 ('No Sleep / Pillow') built on Sep  2 2012 15:37:04Writing library             : libebml v1.2.3 + libmatroska v1.3.0VideoID                          : 1Format                      : AVCFormat/Info                 : Advanced Video CodecFormat profile              : High@L4Format settings             : CABAC / 5 Ref FramesFormat settings, CABAC      : YesFormat settings, ReFrames   : 5 framesFormat settings, GOP        : N=1Codec ID                    : V_MPEG4/ISO/AVCDuration                    : 1 h 20 minBit rate                    : 4 451 kb/sWidth                       : 1 920 pixelsHeight                      : 804 pixelsDisplay aspect ratio        : 2.40:1Frame rate mode             : ConstantFrame rate                  : 25.000 FPSColor space                 : YUVChroma subsampling          : 4:2:0Bit depth                   : 8 bitsScan type                   : ProgressiveBits/(Pixel*Frame)          : 0.115Stream size                 : 2.50 GiB (90%)Title                       : Bolishoe.puteshestvie.2019.WEB-DL.1080pLanguage                    : EnglishDefault                     : YesForced                      : NoColor range                 : LimitedColor primaries             : BT.709Transfer characteristics    : BT.709Matrix coefficients         : BT.709AudioID                          : 2Format                      : AC-3Format/Info                 : Audio Coding 3Codec ID                    : A_AC3Duration                    : 1 h 20 minBit rate mode               : ConstantBit rate                    : 384 kb/sChannel(s)                  : 6 channelsChannel positions           : Front: L C R, Side: L R, LFESampling rate               : 48.0 kHzFrame rate                  : 31.250 FPS (1536 SPF)Bit depth                   : 16 bitsCompression mode            : LossyStream size                 : 221 MiB (8%)Title                       : iTunesLanguage                    : RussianService kind                : Complete MainDefault                     : YesForced                      : NoMenu00:00:00.000                : en:Глава 100:04:13.920                : en:Глава 200:11:27.920                : en:Глава 300:19:19.800                : en:Глава 400:24:41.200                : en:Глава 500:29:27.040                : en:Глава 600:38:44.480                : en:Глава 700:45:08.760                : en:Глава 800:49:43.680                : en:Глава 900:56:14.920                : en:Глава 1001:02:21.320                : en:Глава 1101:08:59.760                : en:Глава 1201:13:23.840                : en:Глава 13

Скриншоты


Чтобы скачать этот контент, Вам необходимо:
1. Скачать и установить торрент-клиент [клик для Windows], (для мобильного найдите на Play Маркет).
2. Кликнуть по [Скачать]


Внимание.
Если проверка ВЫ НЕ РОБОТ - не работает, значит Вы используете устаревший браузер.
Установите актуальный браузер и повторно кликните по [Скачать]

Запрещён Яндекс браузер. Загрузка файлов им является ошибочной.
Безопасность: торрент-клиент разрешён АВ Касперского.

[asmlocator.ru].t657731.torrent 
Торрент: Зарегистрирован [ 2019-08-16 02:05 ] · 182B18E2BFBD9251739CF6F16ACD1F539D433B66

Скачать .torrent

Скачать

14 KB

Статус: проверено
Скачан: 1 раз
Размер: 2.77 GB
terms.php
[Профиль] [ЛС]
Показать сообщения:    
Ответить на тему

Текущее время: 02-Июн 23:14

Часовой пояс: UTC ± 0



Вы не можете начинать темы
Вы не можете отвечать на сообщения
Вы не можете редактировать свои сообщения
Вы не можете удалять свои сообщения
Вы не можете голосовать в опросах
Вы не можете прикреплять файлы к сообщениям
Вы можете скачивать файлы
Верим фактам, а не вранью Путина! Факт, что Правительство ведёт Россию к истреблению.
Так как численность населения падает, даже не смотря на приток эмигрантов!
Русская нация вымирает и вырождается, смешиваясь с эмигрантами!
Факт, что военных и граждан предприятий заставляют голосовать за партию Единая Россия и Путина
ПОД СТРАХОМ УВОЛЬНЕНИЯ!
Нам не нужно Правительство, блокирующее личную жизнь, интернет, нарушающее сохранность данных.
Все эти действия финансируются за счёт народа!