Матрица: Трилогия / The Matrix: Trilogy (Энди Вачовски / Andy Wachowski, Ларри Вачовски / Larry Wachowski) [1999-2003, США, фантастика, боевик, приключения, WEBRip] [Open Matte] Dub

Ответить на тему
Статистика раздачи
Размер:  6.54 GB   |    Зарегистрирован:  7 месяцев 4 дня   |    Скачан:  2 раза

Полного источника не было: 2 месяца 6 дней

 
   
 
 
Автор Сообщение

star21 ®

Пол: Женский

Стаж: 4 года 3 месяца

Сообщений: 551946

Откуда: Екатеринбург

Создавать темы 19-Июл-2019 23:15

[Цитировать]

Матрица: Трилогия / The Matrix: TrilogyМатрица / The Matrix Страна: США
Жанр: фантастика, боевик, приключения
Год выпуска: 1999
Продолжительность: 02:16:41Перевод: Профессиональный (дублированный)
Субтитры: нетРежиссер: Энди Вачовски / Andy Wachowski, Ларри Вачовски / Larry WachowskiВ ролях: Киану Ривз, Лоренс Фишбёрн, Кэрри-Энн Мосс, Хьюго Уивинг, Джо Пантольяно, Глория Фостер, Маркус Чонг, Джулиан Араханга, Мэтт Доран, Белинда МакКлори, Энтони Рэй ПаркерОписание: Жизнь Томаса Андерсона разделена на две части: днём он самый обычный офисный работник, получающий нагоняи от начальства, а ночью превращается в хакера по имени Нео, и нет места в сети, куда он не смог бы дотянуться. Но однажды всё меняется — герой, сам того не желая, узнаёт страшную правду: всё, что его окружает — не более, чем иллюзия, Матрица, а люди — всего лишь источник питания для искусственного интеллекта, поработившего человечество. И только Нео под силу изменить расстановку сил в этом ставшем вдруг чужим и страшным мире.СэмплКачество видео: WEBRip
Формат видео: AVIВидео: 720x400 (1.80:1), 23.976 fps, XviD build 73 ~1831 kbps avg, 0.27 bit/pixel
Аудио: 48 kHz, AC3 Dolby Digital, 3/2 (L,C,R,l,r) + LFE ch, ~448 kbps

MediaInfo

GeneralComplete name               : H:\The Matrix_Trilogy.1999-2003.webrip_[open.matte]_[teko]\The.Matrix.1999.webrip_[open.matte]_[2.18].aviFormat                      : AVIFormat/Info                 : Audio Video InterleaveFormat profile              : OpenDMLFile size                   : 2.18 GiBDuration                    : 2h 16mnOverall bit rate            : 2 285 KbpsWriting application         : VirtualDubMod 1.5.10.3 | www.virtualdub-fr.org || (build 2550/release)Writing library             : VirtualDubMod build 2550/releaseVideoID                          : 0Format                      : MPEG-4 VisualFormat profile              : Advanced Simple@L5Format settings, BVOP       : 2Format settings, QPel       : NoFormat settings, GMC        : No warppointsFormat settings, Matrix     : CustomCodec ID                    : XVIDCodec ID/Hint               : XviDDuration                    : 2h 16mnBit rate                    : 1 827 KbpsWidth                       : 720 pixelsHeight                      : 400 pixelsDisplay aspect ratio        : 16:9Frame rate                  : 23.976 (23976/1000) fpsColor space                 : YUVChroma subsampling          : 4:2:0Bit depth                   : 8 bitsScan type                   : ProgressiveCompression mode            : LossyBits/(Pixel*Frame)          : 0.265Stream size                 : 1.74 GiB (80%)Writing library             : XviD 73AudioID                          : 1Format                      : AC-3Format/Info                 : Audio Coding 3Mode extension              : CM (complete main)Format settings, Endianness : BigCodec ID                    : 2000Duration                    : 2h 16mnBit rate mode               : ConstantBit rate                    : 448 KbpsChannel(s)                  : 6 channelsChannel positions           : Front: L C R, Side: L R, LFESampling rate               : 48.0 KHzFrame rate                  : 31.250 fps (1536 spf)Compression mode            : LossyStream size                 : 437 MiB (20%)Alignment                   : Split accross interleavesInterleave, duration        : 42 ms (1.00 video frame)Interleave, preload duratio : 500 ms

Скриншоты

Матрица: Перезагрузка / The Matrix Reloaded Страна: США
Жанр: фантастика, боевик, приключения
Год выпуска: 2003
Продолжительность: 02:17:00Перевод: Профессиональный (дублированный)
Субтитры: нетРежиссер: Энди Вачовски / Andy Wachowski, Ларри Вачовски / Larry WachowskiВ ролях: Киану Ривз, Хьюго Уивинг, Кэрри-Энн Мосс, Лоренс Фишбёрн, Хэролд Перрино, Джада Пинкетт Смит, Моника Беллуччи, Глория Фостер, Джина Торрес, Нэтаниэл Лис, Гарри Дж. ЛенниксОписание: Борцы за свободу Нео, Тринити и Морфеус продолжают руководить восстанием людей против Армии Машин. Для уничтожения системы репрессий и эксплуатации они вынуждены прибегнуть не только к арсеналу превосходного оружия, но и к своим выдающимся навыкам. Участие в миссии по спасению человеческой расы от ее полного истребления приносит им более глубокое понимание конструкции Матрицы и осознание центральной роли Нео в судьбе человечества.СэмплКачество видео: WEBRip
Формат видео: AVIВидео: 720x400 (1.80:1), 23.976 fps, XviD build 73 ~1821 kbps avg, 0.26 bit/pixel
Аудио: 48 kHz, AC3 Dolby Digital, 3/2 (L,C,R,l,r) + LFE ch, ~448 kbps

MediaInfo

General
Complete name : H:\The Matrix_Trilogy.1999-2003.webrip_[open.matte]_[teko]\The.Matrix.II.Reloaded.2003.webrip_[open.matte]_[2.18].avi
Format : AVI
Format/Info : Audio Video Interleave
Format profile : OpenDML
File size : 2.18 GiB
Duration : 2h 17mn
Overall bit rate : 2 276 Kbps
Writing application : VirtualDubMod 1.5.10.3 | www.virtualdub-fr.org || (build 2550/release)
Writing library : VirtualDubMod build 2550/releaseVideo
ID : 0
Format : MPEG-4 Visual
Format profile : Advanced Simple@L5
Format settings, BVOP : 2
Format settings, QPel : No
Format settings, GMC : No warppoints
Format settings, Matrix : Custom
Codec ID : XVID
Codec ID/Hint : XviD
Duration : 2h 17mn
Bit rate : 1 816 Kbps
Width : 720 pixels
Height : 400 pixels
Display aspect ratio : 16:9
Frame rate : 23.976 (23976/1000) fps
Color space : YUV
Chroma subsampling : 4:2:0
Bit depth : 8 bits
Scan type : Progressive
Compression mode : Lossy
Bits/(Pixel*Frame) : 0.263
Stream size : 1.74 GiB (80%)
Writing library : XviD 73Audio
ID : 1
Format : AC-3
Format/Info : Audio Coding 3
Mode extension : CM (complete main)
Format settings, Endianness : Big
Codec ID : 2000
Duration : 2h 17mn
Bit rate mode : Constant
Bit rate : 448 Kbps
Channel(s) : 6 channels
Channel positions : Front: L C R, Side: L R, LFE
Sampling rate : 48.0 KHz
Frame rate : 31.250 fps (1536 spf)
Compression mode : Lossy
Stream size : 439 MiB (20%)
Alignment : Split accross interleaves
Interleave, duration : 42 ms (1.00 video frame)
Interleave, preload duratio : 500 ms

Скриншоты

Матрица: Революция / The Matrix Revolutions Страна: США
Жанр: фантастика, боевик, приключения
Год выпуска: 2003
Продолжительность: 02:09:12Перевод: Профессиональный (дублированный)
Субтитры: нетРежиссер: Энди Вачовски / Andy Wachowski, Ларри Вачовски / Larry WachowskiВ ролях: Киану Ривз, Хьюго Уивинг, Кэрри-Энн Мосс, Лоренс Фишбёрн, Хэролд Перрино, Джина Торрес, Джада Пинкетт Смит, Моника Беллуччи, Гарри Дж. Ленникс, Мэри Элис, Брюс СпенсОписание: Пока армия машин пытается уничтожить Зион, его жители из последних сил держат оборону. Но удастся ли им предотвратить полное вторжение в город кишащей орды беспощадных машин до того, как Нео соберет все свои силы и положит конец войне?СэмплКачество видео: WEBRip
Формат видео: AVIВидео: 720x400 (1.80:1), 23.976 fps, XviD build 73 ~1961 kbps avg, 0.28 bit/pixel
Аудио: 48 kHz, AC3 Dolby Digital, 3/2 (L,C,R,l,r) + LFE ch, ~448 kbps

MediaInfo

GeneralComplete name               : H:\The Matrix_Trilogy.1999-2003.webrip_[open.matte]_[teko]\The.Matrix.III.Revolutions.2003.webrip_[open.matte]_[2.18].aviFormat                      : AVIFormat/Info                 : Audio Video InterleaveFormat profile              : OpenDMLFile size                   : 2.18 GiBDuration                    : 2h 9mnOverall bit rate            : 2 417 KbpsWriting application         : VirtualDubMod 1.5.10.3 | www.virtualdub-fr.org || (build 2550/release)Writing library             : VirtualDubMod build 2550/releaseVideoID                          : 0Format                      : MPEG-4 VisualFormat profile              : Advanced Simple@L5Format settings, BVOP       : 2Format settings, QPel       : NoFormat settings, GMC        : No warppointsFormat settings, Matrix     : CustomCodec ID                    : XVIDCodec ID/Hint               : XviDDuration                    : 2h 9mnBit rate                    : 1 957 KbpsWidth                       : 720 pixelsHeight                      : 400 pixelsDisplay aspect ratio        : 16:9Frame rate                  : 23.976 (23976/1000) fpsColor space                 : YUVChroma subsampling          : 4:2:0Bit depth                   : 8 bitsScan type                   : ProgressiveCompression mode            : LossyBits/(Pixel*Frame)          : 0.283Stream size                 : 1.77 GiB (81%)Writing library             : XviD 73AudioID                          : 1Format                      : AC-3Format/Info                 : Audio Coding 3Mode extension              : CM (complete main)Format settings, Endianness : BigCodec ID                    : 2000Duration                    : 2h 9mnBit rate mode               : ConstantBit rate                    : 448 KbpsChannel(s)                  : 6 channelsChannel positions           : Front: L C R, Side: L R, LFESampling rate               : 48.0 KHzFrame rate                  : 31.250 fps (1536 spf)Compression mode            : LossyStream size                 : 414 MiB (19%)Alignment                   : Split accross interleavesInterleave, duration        : 42 ms (1.00 video frame)Interleave, preload duratio : 500 ms

Скриншоты

Релиз группы:

Чтобы скачать этот контент, Вам необходимо:
1. Скачать и установить торрент-клиент [клик для Windows], (для мобильного найдите на Play Маркет).
2. Кликнуть по [Скачать]


Внимание.
Если проверка ВЫ НЕ РОБОТ - не работает, значит Вы используете устаревший браузер.
Установите актуальный браузер и повторно кликните по [Скачать]
Безопасность: торрент-клиент разрешён АВ Касперского.

[asmlocator.ru].t652549.torrent 
Торрент: Зарегистрирован [ 2019-07-19 23:15 ] · 0BEAE9DC9C800F89E66482971BCD6170C1B2E70D

Скачать .torrent

Скачать

33 KB

Статус: проверено
Скачан: 2 раз
Размер: 6.54 GB
terms.php
[Профиль] [ЛС]
Показать сообщения:    
Ответить на тему

Текущее время: 24-Фев 00:24

Часовой пояс: UTC ± 0



Вы не можете начинать темы
Вы не можете отвечать на сообщения
Вы не можете редактировать свои сообщения
Вы не можете удалять свои сообщения
Вы не можете голосовать в опросах
Вы не можете прикреплять файлы к сообщениям
Вы можете скачивать файлы
Верим фактам, а не вранью Путина! Факт, что Правительство ведёт Россию к истреблению.
Так как численность населения падает, даже не смотря на приток эмигрантов!
Русская нация вымирает и вырождается, смешиваясь с эмигрантами!
Факт, что военных и граждан предприятий заставляют голосовать за партию Единая Россия и Путина
ПОД СТРАХОМ УВОЛЬНЕНИЯ!
Нам не нужно Правительство, блокирующее личную жизнь, интернет, нарушающее сохранность данных.
Все эти действия финансируются за счёт народа!