(Heavy Metal) [CD] Jaded Heart - Devil\'s Gift (Japanese Edition) - 2018, FLAC (image+.cue), lossless

Ответить на тему
Статистика раздачи
Размер:  573 MB   |    Зарегистрирован:  3 месяца 13 дней   |    Скачан:  0 раз

Полного источника не было: Никогда

 
   
 
 
Автор Сообщение

star21 ®

Пол: Женский

Стаж: 3 года 11 месяцев

Сообщений: 551988

Откуда: Екатеринбург

Создавать темы 08-Июл-2019 10:55

[Цитировать]


Jaded Heart

Devil's Gift



• Жанр: Heavy Metal
• Носитель: CD
• Год издания: 2018
• Издатель: Radtone Music
• Номер по каталогу: RADC-105
• Страна: Germany / Sweden
• Аудиокодек: FLAC (*.flac)
• Тип рипа: image+.cue
• Продолжительность: 01:04:30
• Источник: Ilijan
• Наличие сканов: да 01. Wasteland [00:04:22]
02. The Enemy [00:03:59]
03. Set Free [00:05:30]
04. Scream Of Anger [00:05:24]
05. Tears Of Our World [00:04:13]
06. Phoenix [00:04:12]
07. One World [00:04:11]
08. Story Of My Life [00:04:14]
09. Coming Home [00:04:23]
10. Conspiracy Of Science [00:04:42]
11. Final Moment [00:05:26]
12. Black Days (Bonus Track) [00:04:25]
13. Flying High (Bonus Track) [00:05:02]
14. Break The Chains (Bonus Track) [00:04:20]

• Содержание индексной карты •

REM GENRE "Heavy Metal"REM DATE 2018REM DISCID C60F3A0EREM COMMENT "ExactAudioCopy v1.3"PERFORMER "Jaded Heart"TITLE "Devil's Gift (Japan)"FILE "Jaded Heart - Devil's Gift (Japan).flac" WAVE  TRACK 01 AUDIO    TITLE "Wasteland"    PERFORMER "Jaded Heart"    INDEX 01 00:00:00  TRACK 02 AUDIO    TITLE "The Enemy"    PERFORMER "Jaded Heart"    INDEX 00 04:22:17    INDEX 01 04:24:17  TRACK 03 AUDIO    TITLE "Set Free"    PERFORMER "Jaded Heart"    INDEX 00 08:23:40    INDEX 01 08:25:40  TRACK 04 AUDIO    TITLE "Scream Of Anger"    PERFORMER "Jaded Heart"    INDEX 00 13:55:73    INDEX 01 13:57:73  TRACK 05 AUDIO    TITLE "Tears Of Our World"    PERFORMER "Jaded Heart"    INDEX 00 19:22:63    INDEX 01 19:24:63  TRACK 06 AUDIO    TITLE "Phoenix"    PERFORMER "Jaded Heart"    INDEX 00 23:38:50    INDEX 01 23:40:50  TRACK 07 AUDIO    TITLE "One World"    PERFORMER "Jaded Heart"    INDEX 00 27:52:60    INDEX 01 27:54:60  TRACK 08 AUDIO    TITLE "Story Of My Life"    PERFORMER "Jaded Heart"    INDEX 00 32:06:31    INDEX 01 32:08:31  TRACK 09 AUDIO    TITLE "Coming Home"    PERFORMER "Jaded Heart"    INDEX 00 36:23:22    INDEX 01 36:25:22  TRACK 10 AUDIO    TITLE "Conspiracy Of Science"    PERFORMER "Jaded Heart"    INDEX 00 40:48:42    INDEX 01 40:50:42  TRACK 11 AUDIO    TITLE "Final Moment"    PERFORMER "Jaded Heart"    INDEX 00 45:32:72    INDEX 01 45:34:72  TRACK 12 AUDIO    TITLE "Black Days (Bonus Track)"    PERFORMER "Jaded Heart"    INDEX 00 51:01:11    INDEX 01 51:03:11  TRACK 13 AUDIO    TITLE "Flying High (Bonus Track)"    PERFORMER "Jaded Heart"    INDEX 00 55:29:05    INDEX 01 55:31:05  TRACK 14 AUDIO    TITLE "Break The Chains (Bonus Track)"    PERFORMER "Jaded Heart"    INDEX 00 60:33:72    INDEX 01 60:35:72

• Лог создания рипа •

Exact Audio Copy V1.3 from 2. September 2016EAC extraction logfile from 16. July 2018, 22:13Jaded Heart / Devil's Gift (Japan)Used drive  : ATAPI   iHAS122   W   Adapter: 2  ID: 0Read mode               : SecureUtilize accurate stream : YesDefeat audio cache      : YesMake use of C2 pointers : NoRead offset correction                      : 48Overread into Lead-In and Lead-Out          : NoFill up missing offset samples with silence : YesDelete leading and trailing silent blocks   : NoNull samples used in CRC calculations       : YesUsed interface                              : Installed external ASPI interfaceUsed output format              : User Defined EncoderSelected bitrate                : 1024 kBit/sQuality                         : HighAdd ID3 tag                     : NoCommand line compressor         : C:\Program Files\FLAC\flac.exeAdditional command line options : -V -8 -T "Date=%year%" -T "Genre=%genre%" -T"COMMENT=Ripped by  Ilijan [MeTaLMaDNeSS.TeaM]" -8 -V %source%TOC of the extracted CD     Track |   Start  |  Length  | Start sector | End sector    ---------------------------------------------------------        1  |  0:00.00 |  4:24.17 |         0    |    19816        2  |  4:24.17 |  4:01.23 |     19817    |    37914        3  |  8:25.40 |  5:32.33 |     37915    |    62847        4  | 13:57.73 |  5:26.65 |     62848    |    87362        5  | 19:24.63 |  4:15.62 |     87363    |   106549        6  | 23:40.50 |  4:14.10 |    106550    |   125609        7  | 27:54.60 |  4:13.46 |    125610    |   144630        8  | 32:08.31 |  4:16.66 |    144631    |   163896        9  | 36:25.22 |  4:25.20 |    163897    |   183791       10  | 40:50.42 |  4:44.30 |    183792    |   205121       11  | 45:34.72 |  5:28.14 |    205122    |   229735       12  | 51:03.11 |  4:27.69 |    229736    |   249829       13  | 55:31.05 |  5:04.67 |    249830    |   272696       14  | 60:35.72 |  4:22.51 |    272697    |   292397Range status and errorsSelected range     Filename D:\Delirium\Jaded Heart - Devil's Gift (Japan).wav     Peak level 94.4 %     Extraction speed 4.2 X     Range quality 99.9 %     Test CRC 7253EF05     Copy CRC 7253EF05     Copy OKNo errors occurredAccurateRip summaryTrack  1  not present in databaseTrack  2  not present in databaseTrack  3  not present in databaseTrack  4  not present in databaseTrack  5  not present in databaseTrack  6  not present in databaseTrack  7  not present in databaseTrack  8  not present in databaseTrack  9  not present in databaseTrack 10  not present in databaseTrack 11  not present in databaseTrack 12  not present in databaseTrack 13  not present in databaseTrack 14  not present in databaseNone of the tracks are present in the AccurateRip databaseEnd of status report---- CUETools DB Plugin V2.1.6[CTDB TOCID: 71gtlhQ4kZufElmu8PgT1T6r1Yg-] disk not present in databaseSubmit result: 71gtlhQ4kZufElmu8PgT1T6r1Yg- has been uploaded==== Log checksum D25F5C5D3842254238FC9E04711260F32A5202543C4B3794BECE03379E7FE3DC ====

Чтобы скачать этот контент, Вам необходимо:
1. Скачать и установить торрент-клиент [клик для Windows], (для мобильного найдите на Play Маркет).
2. Кликнуть по [Скачать]


Внимание.
Если проверка ВЫ НЕ РОБОТ - не работает, значит Вы используете устаревший браузер.
Установите актуальный браузер и повторно кликните по [Скачать]
Безопасность: торрент-клиент разрешён АВ Касперского.

[asmlocator.ru].t649625.torrent 
Торрент: Зарегистрирован [ 2019-07-08 10:55 ] · C9300D4522E6E464771C688330D95A607A4B4212

Скачать .torrent

Скачать

13 KB

Статус: проверено
Скачан: 0 раз
Размер: 573 MB
terms.php
[Профиль] [ЛС]
Показать сообщения:    
Ответить на тему

Текущее время: 21-Окт 14:12

Часовой пояс: UTC ± 0



Вы не можете начинать темы
Вы не можете отвечать на сообщения
Вы не можете редактировать свои сообщения
Вы не можете удалять свои сообщения
Вы не можете голосовать в опросах
Вы не можете прикреплять файлы к сообщениям
Вы можете скачивать файлы
Верим фактам, а не вранью Путина! Факт, что Правительство ведёт Россию к истреблению.
Так как численность населения падает, даже не смотря на приток эмигрантов!
Русская нация вымирает и вырождается, смешиваясь с эмигрантами!
Факт, что военных и граждан предприятий заставляют голосовать за партию Единая Россия и Путина
ПОД СТРАХОМ УВОЛЬНЕНИЯ!
Нам не нужно Правительство, блокирующее личную жизнь, интернет, нарушающее сохранность данных.
Все эти действия финансируются за счёт народа!