(Post-Rock, Post-Industrial) [WEB] Teeth of the Sea - Wraith [l. Rocket Recordings] - 2019, FLAC (tracks), lossless

Ответить на тему
Статистика раздачи
Размер:  266 MB   |    Зарегистрирован:  3 месяца 7 дней   |    Скачан:  0 раз

Полного источника не было: Никогда

 
   
 
 
Автор Сообщение

star21 ®

Пол: Женский

Стаж: 3 года 11 месяцев

Сообщений: 551988

Откуда: Екатеринбург

Создавать темы 07-Июл-2019 12:40

[Цитировать]

teeth of the sea — wraith
  • Страна: United Kingdom (London / Greater London)
  • Жанры: Post-Rock | Post-Industrial
  • Издатель: Rocket Recordings (UK)
  • Номер по каталогу: LAUNCH 154
  • Источник: red | bandcamp.com
  • Аудио кодек: FLAC (.flac)
  • Битрейт аудио: lossless
  • Тип рипа: tracks
  • 22.02.2019
  • Формат: WEB.
  • track listing01 I'd Rather, Jack [04:55]
    02 Hiraeth [07:08]
    03 Burn of the Shieling [04:41]
    04 Fortean Steed [04:00]
    05 Visitor [08:22]
    06 Her Wraith [06:39]
    07 Wraiths in the Wall [00:27]
    08 Our Love Can Destroy This Whole Fucking World [03:37]
    09 Gladiators Ready [07:10]total length (00:46:56)

SPOILER

auCDtect

-----------------------DON'T MODIFY THIS FILE-----------------------PERFORMER: auCDtect Task Manager, ver. 1.6.0 RC1 build 1.6.0.1Copyright (c) 2008-2010 y-soft. All rights reservedANALYZER: auCDtect: CD records authenticity detector, version 0.8.2Copyright (c) 2004 Oleg Berngardt. All rights reserved.Copyright (c) 2004 Alexander Djourik. All rights reserved.FILE: 09. Gladiators Ready.flac  Size: 48643251 Hash: CFAD37213FB0FE82FBC5AB83305914A2 Accuracy: -m0  Conclusion: MPEG 95%  Signature: 9C5B594FD29E36C790B8EE803604BF332B5A45AFFILE: 08. Our Love Can Destroy This Whole Fucking World.flac  Size: 19015482 Hash: 9912164B69A78DAB02D1F93CBD4AFBC8 Accuracy: -m0  Conclusion: CDDA 100%  Signature: 75A99B8B41D91CE7442B852F7204331D1BDBCED7FILE: 07. Wraiths in the Wall.flac  Size: 2518447 Hash: 3F11294B20A8769261A0851590E54A80 Accuracy: -m0  Conclusion: CDDA 100%  Signature: D42154D735EF063B5947B69EF62ECB790F26BC2BFILE: 06. Her Wraith.flac  Size: 29946272 Hash: D67E4464E7E34AA9E92EB9B1AD04392B Accuracy: -m0  Conclusion: CDDA 100%  Signature: 5F14CDAE2314DEF954F5AF7F6F4227761D2A4D06FILE: 05. Visitor.flac  Size: 50717139 Hash: 0187160590D6F86890328849E2166A45 Accuracy: -m0  Conclusion: CDDA 99%  Signature: 079C6CF17F4F664737E10AE27803CEE40910800BFILE: 04. Fortean Steed.flac  Size: 19964900 Hash: 5F74D26CBE3B5EAD8150E8EC2667D299 Accuracy: -m0  Conclusion: CDDA 100%  Signature: 1B96E749580825E3A6064AB8D924BD63CED735C8FILE: 03. Burn of the Shieling.flac  Size: 28529952 Hash: 0AEE20D231B89C63D50100D0599F4581 Accuracy: -m0  Conclusion: CDDA 100%  Signature: 4E457F7CB213496BDBACBA965F8836526F5E5D28FILE: 02. Hiraeth.flac  Size: 43833896 Hash: 7330A1D421B2C21EF9C4E998484A26E3 Accuracy: -m0  Conclusion: CDDA 100%  Signature: 7E78859E63511F3D92AAF1DCD4FEF6143B943884FILE: 01. I'd Rather, Jack.flac  Size: 34112665 Hash: D376E2F5FECFB97B5BA84B069414DD73 Accuracy: -m0  Conclusion: CDDA 100%  Signature: E95CDE4A6C154BB4F32FEF02EB73CB8353C36F43

DR

foobar2000 1.3.9 / Dynamic Range Meter 1.1.1log date: 2019-04-26 13:22:43--------------------------------------------------------------------------------Analyzed: Teeth of the Sea / Wraith--------------------------------------------------------------------------------DR         Peak         RMS     Duration Track--------------------------------------------------------------------------------DR7       -0.20 dB    -8.69 dB      4:55 01-I'd Rather, JackDR6       -0.20 dB    -8.40 dB      7:08 02-HiraethDR7       -0.20 dB   -10.75 dB      4:41 03-Burn of the ShielingDR10      -0.20 dB   -14.70 dB      4:00 04-Fortean SteedDR5       -0.20 dB    -8.38 dB      8:22 05-VisitorDR8       -0.20 dB   -12.17 dB      6:38 06-Her WraithDR10      -0.20 dB   -13.21 dB      0:26 07-Wraiths in the WallDR7       -0.20 dB    -7.76 dB      3:37 08-Our Love Can Destroy This Whole Fucking WorldDR6       -0.20 dB    -7.91 dB      7:10 09-Gladiators Ready--------------------------------------------------------------------------------Number of tracks:  9Official DR value: DR7Samplerate:        44100 HzChannels:          2Bits per sample:   16Bitrate:           904 kbpsCodec:             FLAC================================================================================

SPECTROGRAM

...ну, в металле, так в металле...

Чтобы скачать этот контент, Вам необходимо:
1. Скачать и установить торрент-клиент [клик для Windows], (для мобильного найдите на Play Маркет).
2. Кликнуть по [Скачать]


Внимание.
Если проверка ВЫ НЕ РОБОТ - не работает, значит Вы используете устаревший браузер.
Установите актуальный браузер и повторно кликните по [Скачать]
Безопасность: торрент-клиент разрешён АВ Касперского.

[asmlocator.ru].t649281.torrent 
Торрент: Зарегистрирован [ 2019-07-07 12:40 ] · 0F0A7536B3EF9269CE6219C8B0B04BF0CBC9531D

Скачать .torrent

Скачать

11 KB

Статус: проверено
Скачан: 0 раз
Размер: 266 MB
terms.php
[Профиль] [ЛС]
Показать сообщения:    
Ответить на тему

Текущее время: 14-Окт 20:05

Часовой пояс: UTC ± 0



Вы не можете начинать темы
Вы не можете отвечать на сообщения
Вы не можете редактировать свои сообщения
Вы не можете удалять свои сообщения
Вы не можете голосовать в опросах
Вы не можете прикреплять файлы к сообщениям
Вы можете скачивать файлы
Верим фактам, а не вранью Путина! Факт, что Правительство ведёт Россию к истреблению.
Так как численность населения падает, даже не смотря на приток эмигрантов!
Русская нация вымирает и вырождается, смешиваясь с эмигрантами!
Факт, что военных и граждан предприятий заставляют голосовать за партию Единая Россия и Путина
ПОД СТРАХОМ УВОЛЬНЕНИЯ!
Нам не нужно Правительство, блокирующее личную жизнь, интернет, нарушающее сохранность данных.
Все эти действия финансируются за счёт народа!