[TR24][OF][FM] Люди в черном: Интернэшнл / Men in Black: International (by Danny Elfman & Chris Bacon) - 2019 (Score)

Ответить на тему
Статистика раздачи
Размер:  1,08 GB   |    Зарегистрирован:  3 месяца 9 дней   |    Скачан:  0 раз

Полного источника не было: Никогда

 
   
 
 
Автор Сообщение

star21 ®

Пол: Женский

Стаж: 3 года 11 месяцев

Сообщений: 551988

Откуда: Екатеринбург

Создавать темы 04-Июл-2019 03:05

[Цитировать]

Danny Elfman & Chris Bacon - Men in Black: International Формат записи/Источник записи: [TR24][OF][FM]
Наличие водяных знаков: Нет
Год издания: 2019
Жанр: Score
Издатель (лейбл): Sony Classical
Продолжительность: 00:54:26
Наличие сканов в содержимом раздачи: Только обложка альбома
Контейнер: FLAC (*.flac)
Тип рипа: tracks
Разрядность: 24/96
Формат: PCM
Количество каналов: 2.0
Источник (релизер): qobuz.comТреклист
01. Logos (1:28)
02. L Train (2:49)
03. Seeing Is Believing (4:45)
04. Job Interview (0:55)
05. I Found You (1:59)
06. Viper Room (1:56)
07. Twins (1:09)
08. Who's That Guy? (1:23)
09. VR Room (1:37)
10. Too Much (1:31)
11. Vungus Aftermath (1:50)
12. Here Comes Trouble (1:44)
13. Riding a Bike (2:57)
14. Blue Giant (2:04)
15. Pink Trousers (3:58)
16. Flying Fists (3:36)
17. Kabla (2:26)
18. Demise (1:31)
19. Where's The Weapon? (2:32)
20. Ah, Paris (1:29)
21. The Truth (2:36)
22. Portal (2:09)
23. Like a Son (0:59)
24. Promotions (2:56)
25. Red Button (1:12)
26. End Credits (1:04)

Лог проверки качества

foobar2000 1.4 / Dynamic Range Meter 1.1.1log date: 2019-06-07 23:10:40--------------------------------------------------------------------------------Analyzed: Danny Elfman / Men in Black: International (Original Motion Picture Score)--------------------------------------------------------------------------------DR         Peak         RMS     Duration Track--------------------------------------------------------------------------------DR8       -0.49 dB   -12.04 dB      1:28 01-LogosDR8       -0.49 dB   -12.49 dB      2:49 02-L TrainDR10      -0.50 dB   -14.99 dB      4:45 03-Seeing Is BelievingDR12      -5.67 dB   -22.69 dB      0:55 04-Job InterviewDR11      -5.31 dB   -25.45 dB      1:59 05-I Found YouDR9       -0.49 dB   -14.20 dB      1:56 06-Viper RoomDR8       -0.50 dB   -12.44 dB      1:09 07-TwinsDR11      -0.56 dB   -15.13 dB      1:23 08-Who's That Guy?DR12      -0.50 dB   -18.70 dB      1:37 09-VR RoomDR11      -0.49 dB   -17.13 dB      1:31 10-Too MuchDR11      -8.28 dB   -25.44 dB      1:50 11-Vungus AftermathDR10      -0.50 dB   -14.80 dB      1:44 12-Here Comes TroubleDR9       -0.48 dB   -12.78 dB      2:57 13-Riding a BikeDR10      -0.50 dB   -16.51 dB      2:04 14-Blue GiantDR13      -0.50 dB   -19.05 dB      3:58 15-Pink TrousersDR8       -0.49 dB   -13.43 dB      3:36 16-Flying FistsDR12      -3.60 dB   -20.29 dB      2:26 17-KablaDR8       -0.50 dB   -12.58 dB      1:31 18-DemiseDR9       -0.49 dB   -13.97 dB      2:32 19-Where's The Weapon?DR9       -0.49 dB   -14.03 dB      1:29 20-Ah, ParisDR10      -0.50 dB   -16.20 dB      2:36 21-The TruthDR7       -0.49 dB   -10.92 dB      2:09 22-PortalDR7       -0.49 dB    -9.70 dB      0:59 23-Like a SonDR12      -0.68 dB   -18.73 dB      2:56 24-PromotionsDR7       -0.49 dB   -12.51 dB      1:12 25-Red ButtonDR7       -0.48 dB    -8.70 dB      1:04 26-End Credits--------------------------------------------------------------------------------Number of tracks:  26Official DR value: DR10Samplerate:        96000 HzChannels:          2Bits per sample:   24Bitrate:           3140 kbpsCodec:             FLAC================================================================================

Чтобы скачать этот контент, Вам необходимо:
1. Скачать и установить торрент-клиент [клик для Windows], (для мобильного найдите на Play Маркет).
2. Кликнуть по [Скачать]


Внимание.
Если проверка ВЫ НЕ РОБОТ - не работает, значит Вы используете устаревший браузер.
Установите актуальный браузер и повторно кликните по [Скачать]
Безопасность: торрент-клиент разрешён АВ Касперского.

[asmlocator.ru].t648442.torrent 
Торрент: Зарегистрирован [ 2019-07-04 03:05 ] · 522D2B31D9A7C5261422AC8231F7D0D5669B8192

Скачать .torrent

Скачать

13 KB

Статус: проверено
Скачан: 0 раз
Размер: 1,08 GB
terms.php
[Профиль] [ЛС]
Показать сообщения:    
Ответить на тему

Текущее время: 13-Окт 21:47

Часовой пояс: UTC ± 0



Вы не можете начинать темы
Вы не можете отвечать на сообщения
Вы не можете редактировать свои сообщения
Вы не можете удалять свои сообщения
Вы не можете голосовать в опросах
Вы не можете прикреплять файлы к сообщениям
Вы можете скачивать файлы
Верим фактам, а не вранью Путина! Факт, что Правительство ведёт Россию к истреблению.
Так как численность населения падает, даже не смотря на приток эмигрантов!
Русская нация вымирает и вырождается, смешиваясь с эмигрантами!
Факт, что военных и граждан предприятий заставляют голосовать за партию Единая Россия и Путина
ПОД СТРАХОМ УВОЛЬНЕНИЯ!
Нам не нужно Правительство, блокирующее личную жизнь, интернет, нарушающее сохранность данных.
Все эти действия финансируются за счёт народа!