(New Age, Ambient) [WEB] Ed Starink - Dream Age - 12 New Dream House Tunes - 1997, FLAC (tracks), lossless

Ответить на тему
Статистика раздачи
Размер:  365 MB   |    Зарегистрирован:  5 месяцев 2 дня   |    Скачан:  1 раз

Полного источника не было: 1 месяц 16 дней

 
   
 
 
Автор Сообщение

star21 ®

Пол: Женский

Стаж: 4 года 1 месяц

Сообщений: 551946

Откуда: Екатеринбург

Создавать темы 03-Июл-2019 05:05

[Цитировать]

Ed Starink / Dream Age - 12 New Dream House Tunes Жанр: New Age, Ambient
Носитель: WEB
Год издания: 1997
Издатель (лейбл): CNR Music
Номер по каталогу: 8714221086287
Страна исполнителя (группы): The Netherlands
Аудиокодек: FLAC (*.flac)
Тип рипа: tracks
Продолжительность: 1:10:00
Источник: SMLoadr
Наличие сканов в содержимом раздачи: нетТреклист:
1. The Adoration of the Earth (7:35)
2. Echo of the Green Forest (5:18) // Peter Weekers & Ed Starink
3. Children of the Forest (6:19) // John May & Edwin Schimscheimer
4. New Dawn (4:36)
5. The Search of Pan (7:02) // Peter Weekers & Ed Starink
6. The River Is Wide (5:30) // John May & Edwin Schimscheimer
7. Fall Entrance (7:25)
8. Whispering Bamboo Winds (6:15) // Peter Weekers & Ed Starink
9. In the Tropical Garden (4:20) // John May & Edwin Schimscheimer
10. The Flowers of Wisdom (5:31) // Peter Weekers & Ed Starink
11. Secret Path (4:48) // John May & Edwin Schimscheimer
12. Ancient Voices (5:16) // Ed Starink & Carmen Sars

Динамический диапазон: DR11

foobar2000 1.0.3 / Dynamic Range Meter 1.1.1log date: 2019-06-25 18:49:54--------------------------------------------------------------------------------Analyzed: Ed Starink / Dream Age - 12 New Dream House Tunes (1)          Peter Weekers, Ed Starink / Dream Age - 12 New Dream House Tunes (2)          John May, Edwin Schimscheimer / Dream Age - 12 New Dream House Tunes (3)          Ed Starink / Dream Age - 12 New Dream House Tunes (4)          Peter Weekers, Ed Starink / Dream Age - 12 New Dream House Tunes (5)          John May, Edwin Schimscheimer / Dream Age - 12 New Dream House Tunes (6)          Ed Starink / Dream Age - 12 New Dream House Tunes (7)          Peter Weekers, Ed Starink / Dream Age - 12 New Dream House Tunes (8)          John May, Edwin Schimscheimer / Dream Age - 12 New Dream House Tunes (9)          Peter Weekers, Ed Starink / Dream Age - 12 New Dream House Tunes (10)          John May, Edwin Schimscheimer / Dream Age - 12 New Dream House Tunes (11)          Ed Starink, Carmen Sars / Dream Age - 12 New Dream House Tunes (12)--------------------------------------------------------------------------------DR         Peak         RMS     Duration Track--------------------------------------------------------------------------------DR12      -3.81 dB   -20.54 dB      7:35 01-The Adoration of the EarthDR9       -3.92 dB   -16.87 dB      5:18 02-Echo of the Green ForestDR11      -0.28 dB   -15.03 dB      6:19 03-Children of the ForestDR11      -2.14 dB   -18.46 dB      4:36 04-New DawnDR9       -4.27 dB   -17.39 dB      7:02 05-The Search of PanDR11      -3.03 dB   -18.36 dB      5:31 06-The River Is WideDR12      -3.27 dB   -19.60 dB      7:25 07-Fall EntranceDR11      -4.54 dB   -19.16 dB      6:16 08-Whispering Bamboo WindsDR10      -1.87 dB   -15.58 dB      4:20 09-In the Tropical GardenDR10      -4.32 dB   -17.10 dB      5:32 10-The Flowers of WisdomDR10      -3.69 dB   -17.31 dB      4:49 11-Secret PathDR12      -1.60 dB   -19.70 dB      5:16 12-Ancient Voices--------------------------------------------------------------------------------Number of tracks:  12Official DR value: DR11Samplerate:        44100 HzChannels:          2Bits per sample:   16Bitrate:           651 kbpsCodec:             FLAC================================================================================

Лог проверки качества

AUDIOCHECKER v2.0 beta (build 457) - by Dester - opdester@freemail.hu~~~~~~~~~~~~~~~~~~~~~~~~~~~~~~~~~~-=== DO NOT EDIT THIS FILE! ===-Path: ...\Ed Starink - [1997] Dream Age - 12 New Dream House Tunes01 -=- 01 - The Adoration of the Earth.flac -=- CDDA (100%)02 -=- 02 - Echo of the Green Forest.flac -=- CDDA (100%)03 -=- 03 - Children of the Forest.flac -=- CDDA (100%)04 -=- 04 - New Dawn.flac -=- CDDA (100%)05 -=- 05 - The Search of Pan.flac -=- CDDA (100%)06 -=- 06 - The River Is Wide.flac -=- CDDA (100%)07 -=- 07 - Fall Entrance.flac -=- CDDA (100%)08 -=- 08 - Whispering Bamboo Winds.flac -=- CDDA (100%)09 -=- 09 - In the Tropical Garden.flac -=- CDDA (42%)10 -=- 10 - The Flowers of Wisdom.flac -=- CDDA (100%)11 -=- 11 - Secret Path.flac -=- CDDA (99%)12 -=- 12 - Ancient Voices.flac -=- CDDA (100%)Summary 95.08% CDDA78664772
Спокойные мелодии о прыроде и сказочных мест на синт. струнах и флейте. Хаус не услышал.

Чтобы скачать этот контент, Вам необходимо:
1. Скачать и установить торрент-клиент [клик для Windows], (для мобильного найдите на Play Маркет).
2. Кликнуть по [Скачать]


Внимание.
Если проверка ВЫ НЕ РОБОТ - не работает, значит Вы используете устаревший браузер.
Установите актуальный браузер и повторно кликните по [Скачать]
Безопасность: торрент-клиент разрешён АВ Касперского.

[asmlocator.ru].t648158.torrent 
Торрент: Зарегистрирован [ 2019-07-03 05:05 ] · 29978F08C3914FC97B6CF6E8AEE700FADC11FAA2

Скачать .torrent

Скачать

8 KB

Статус: проверено
Скачан: 1 раз
Размер: 365 MB
terms.php
[Профиль] [ЛС]
Показать сообщения:    
Ответить на тему

Текущее время: 05-Дек 21:02

Часовой пояс: UTC ± 0



Вы не можете начинать темы
Вы не можете отвечать на сообщения
Вы не можете редактировать свои сообщения
Вы не можете удалять свои сообщения
Вы не можете голосовать в опросах
Вы не можете прикреплять файлы к сообщениям
Вы можете скачивать файлы
Верим фактам, а не вранью Путина! Факт, что Правительство ведёт Россию к истреблению.
Так как численность населения падает, даже не смотря на приток эмигрантов!
Русская нация вымирает и вырождается, смешиваясь с эмигрантами!
Факт, что военных и граждан предприятий заставляют голосовать за партию Единая Россия и Путина
ПОД СТРАХОМ УВОЛЬНЕНИЯ!
Нам не нужно Правительство, блокирующее личную жизнь, интернет, нарушающее сохранность данных.
Все эти действия финансируются за счёт народа!