(Celtic) [WEB] The Gothard Sisters - Compass - 2013, FLAC (tracks), lossless

Ответить на тему
Статистика раздачи
Размер:  232 MB   |    Зарегистрирован:  6 месяцев 28 дней   |    Скачан:  1 раз

Полного источника не было: 24 дня

 
   
 
 
Автор Сообщение

star21 ®

Пол: Женский

Стаж: 4 года 2 месяца

Сообщений: 551946

Откуда: Екатеринбург

Создавать темы 01-Июл-2019 06:30

[Цитировать]

The Gothard Sisters / Compass Жанр: Celtic
Носитель: WEB
Год издания: 2013
Номер по каталогу: 884501958714
Страна исполнителя (группы): США
Аудиокодек: FLAC (*.flac)
Тип рипа: tracks
Продолжительность: 41:39
Источник: Deezloader
Наличие сканов в содержимом раздачи: нетТреклист:
1. Compass (2:09)
2. Water Is Wide (3:34)
3. The Landing (2:47)
4. Solid Ground (4:38)
5. Guinevere (2:46)
6. Call and the Answer (5:03)
7. Fairy Dance Jig (2:24)
8. The Whistling Gypsy Rover (4:00)
9. A Song for Lark (3:28) feat. Ruth Vanden Bos
10. Feast of the Elven King (4:05)
11. Danny Boy (3:49)
12. Flying Sails (2:50)

Лог проверки качества

AUDIOCHECKER v2.0 beta (build 457) - by Dester - opdester@freemail.hu~~~~~~~~~~~~~~~~~~~~~~~~~~~~~~~~~~-=== DO NOT EDIT THIS FILE! ===-Path: ...\The Gothard Sisters - [2013] Compass01 -=- 01 - Compass.flac -=- CDDA (100%)02 -=- 02 - Water Is Wide.flac -=- CDDA (99%)03 -=- 03 - The Landing.flac -=- CDDA (100%)04 -=- 04 - Solid Ground.flac -=- CDDA (100%)05 -=- 05 - Guinevere.flac -=- CDDA (100%)06 -=- 06 - Call and the Answer.flac -=- CDDA (100%)07 -=- 07 - Fairy Dance Jig.flac -=- CDDA (100%)08 -=- 08 - The Whistling Gypsy Rover.flac -=- CDDA (100%)09 -=- 09 - A Song for Lark.flac -=- CDDA (100%)10 -=- 10 - Feast of the Elven King.flac -=- CDDA (99%)11 -=- 11 - Danny Boy.flac -=- CDDA (100%)12 -=- 12 - Flying Sails.flac -=- CDDA (100%)Summary 99.83% CDDA127190164

Динамический диапазон: DR8

foobar2000 1.0.3 / Dynamic Range Meter 1.1.1log date: 2019-06-15 05:09:58--------------------------------------------------------------------------------Analyzed: The Gothard Sisters / Compass--------------------------------------------------------------------------------DR         Peak         RMS     Duration Track--------------------------------------------------------------------------------DR8       -0.12 dB    -9.28 dB      2:09 01-CompassDR9       -0.01 dB   -10.22 dB      3:35 02-Water Is WideDR9        0.00 dB   -10.58 dB      2:47 03-The LandingDR9       -0.19 dB   -10.94 dB      4:39 04-Solid GroundDR8       -0.25 dB   -11.08 dB      2:46 05-GuinevereDR9        0.00 dB   -11.70 dB      5:03 06-Call and the AnswerDR9        0.00 dB   -11.44 dB      2:24 07-Fairy Dance JigDR8        0.00 dB    -9.82 dB      4:01 08-The Whistling Gypsy RoverDR8       -1.50 dB   -12.26 dB      3:29 09-A Song for LarkDR8       -0.25 dB    -9.80 dB      4:06 10-Feast of the Elven KingDR8       -0.96 dB   -13.44 dB      3:49 11-Danny BoyDR9       -0.05 dB   -11.13 dB      2:50 12-Flying Sails--------------------------------------------------------------------------------Number of tracks:  12Official DR value: DR8Samplerate:        44100 HzChannels:          2Bits per sample:   16Bitrate:           839 kbpsCodec:             FLAC================================================================================

Чтобы скачать этот контент, Вам необходимо:
1. Скачать и установить торрент-клиент [клик для Windows], (для мобильного найдите на Play Маркет).
2. Кликнуть по [Скачать]


Внимание.
Если проверка ВЫ НЕ РОБОТ - не работает, значит Вы используете устаревший браузер.
Установите актуальный браузер и повторно кликните по [Скачать]
Безопасность: торрент-клиент разрешён АВ Касперского.

[asmlocator.ru].t648019.torrent 
Торрент: Зарегистрирован [ 2019-07-01 06:30 ] · 25EA34CAB29FB90F2412189371D70FF16913A241

Скачать .torrent

Скачать

6 KB

Статус: проверено
Скачан: 1 раз
Размер: 232 MB
terms.php
[Профиль] [ЛС]
Показать сообщения:    
Ответить на тему

Текущее время: 29-Янв 19:14

Часовой пояс: UTC ± 0



Вы не можете начинать темы
Вы не можете отвечать на сообщения
Вы не можете редактировать свои сообщения
Вы не можете удалять свои сообщения
Вы не можете голосовать в опросах
Вы не можете прикреплять файлы к сообщениям
Вы можете скачивать файлы
Верим фактам, а не вранью Путина! Факт, что Правительство ведёт Россию к истреблению.
Так как численность населения падает, даже не смотря на приток эмигрантов!
Русская нация вымирает и вырождается, смешиваясь с эмигрантами!
Факт, что военных и граждан предприятий заставляют голосовать за партию Единая Россия и Путина
ПОД СТРАХОМ УВОЛЬНЕНИЯ!
Нам не нужно Правительство, блокирующее личную жизнь, интернет, нарушающее сохранность данных.
Все эти действия финансируются за счёт народа!