Повесть о поздней хризантеме / Zangiku monogatari / The Story of the Last Chrysanthemum (Кэндзи Мидзогути / Kenji Mizoguchi) [1939, Япония, Драма, DVD9 (Custom)] Vo + Sub Eng, Rus + Original Jap / Criterion Collection#832

Ответить на тему
Статистика раздачи
Размер:  7,28 GB   |    Зарегистрирован:  3 месяца 24 дня   |    Скачан:  1 раз

Полного источника не было: 16 минут

 
   
 
 
Автор Сообщение

star21 ®

Пол: Женский

Стаж: 3 года 10 месяцев

Сообщений: 551989

Откуда: Екатеринбург

Создавать темы 24-Май-2019 20:30

[Цитировать]

Повесть о поздней хризантеме / Zangiku monogatari / The Story of the Last Chrysanthemum / Criterion Collection#832 Страна:ЯпонияСтудия:Shochiku Films Ltd.Жанр:ДрамаГод выпуска:1939
Продолжительность:02:23:45Производство:The Criterion Collection#832Перевод:Одноголосый (закадровый)Субтитры:Английские, Русские rasistПремьера (мир):10.10.1939
Режиссер:Кэндзи Мидзогути / Kenji MizoguchiВ ролях:Сётаро Ханаяги — Кикуносуке Оноэ
Кокити Такада — Фукусуке Накамура
Гондзюро Каварадзаки — Кикугоро Оноэ
Какуро Мори — Отоку
Токусабуро Араси — Сикан Накамура
Ёко Умэмура — Осата
Описание:Актер театра Кабуки претерпел неудачу, молодая женщина указала ему на все ошибки и помогла справиться с ними. Она привела его к успеху, однако любовь, возникшая между ними, счастья героям не принесет. Доп. информация:Исходник найден в сети.Огромное Спасибо Всем, без чьей помощи этот релиз не состоялся бы!Сценарий:Мацутаро Кавагути, Ёсиката Ёда, Сёфу Мурамацу Продюсер:Шинтаро ШираиОператор:Yozo Fuji, Минору МикиКомпозитор:Сиро Фукаи, Сэндзи ИтоХудожник:Хироси Мидзутани, Кисабуро Окумура, Даи АракаваМонтаж:Koshi Kawahigashi

Награды и номинации

Софт

PgcDemux 1.2.0.5 -> разделение компонентов диска на файлы.
BeHappy - AC3 -> Wav.
Sound Forge pro 10 -> синхронизация звука.
Subtitle Workshop, MaestroSBT, DVD SubEdit -> субтитры.
MuxMan DVD authoring Professional -> мультиплексирование и авторинг.
DVDRemake Pro 3.6.4 -> реавторинг DVD.
DVD Shrink 3.2 -> Сэмпл.

Бонусы:(Без перевода)

--New interview with critic Phillip Lopate about the evolution of director Kenji Mizoguchi’s style
--PLUS: An essay by film scholar Dudley Andrew
--New cover by Michael Boland
Меню:Английский, статичное, озвученное.Тип релиза:DVD9 (Custom)Контейнер:DVD-Video
Видео:NTSC 4:3 (720x480) VBR, 6367 Кбит/сек, 23,976 (24000/1001) кадра/сек Аудио 1:Русский:AC3, 2 ch, 48.0 KHz, 192 Кбит/сек / Одноголосый (закадровый)Аудио 2:Японский:AC3, 1 ch, 48.0 KHz, 384 Кбит/сек / ОригиналФормат субтитров:prerendered (DVD/IDX+SUB)

Dvd Info

Title: The Story of the Last Chrysanthemum DVD9_Custom_Criterion#832
Size: 7.28 Gb ( 7 630 066,00 KBytes ) - DVD-9
Enabled regions: 1, 2, 3, 4, 5, 6, 7, 8VTS_01 :
Play Length: 00:00:00
Video: NTSC 16:9 (720x480) VBR, Auto LetterboxedVTS_02 :
Play Length: 02:23:45
Video: NTSC 4:3 (720x480) VBR
Audio:
Russian (Dolby AC3, 2 ch)
Japanese (Dolby AC3, 1 ch)
Subtitles:
English
RussianVTS_03 :
Play Length: 00:00:20
Video: NTSC 4:3 (720x480) VBRVTS_04 :
Play Length: 00:21:18
Video: NTSC 16:9 (720x480) VBR, Auto Letterboxed
Audio:
English (Dolby AC3, 1 ch)
Subtitles:
EnglishVTS_05 :
Play Length: 00:00:00
Video: NTSC 16:9 (720x480) VBR, Auto Letterboxed

Mediainfo

Общее
Полное имя : F:\The Story of the Last Chrysanthemum DVD9_Custom_Criterion#832\VIDEO_TS\VTS_02_2.VOB
Формат : MPEG-PS
Размер файла : 1024 Мбайт
Продолжительность : 20 м. 12 с.
Режим общего битрейта : Переменный
Общий поток : 7084 Кбит/секВидео
Идентификатор : 224 (0xE0)
Формат : MPEG Video
Версия формата : Version 2
Профиль формата : Main@Main
Настройки формата : CustomMatrix / BVOP
Параметр BVOP формата : Да
Параметр матрицы формата : Выборочная
Параметр GOP формата : Variable
Продолжительность : 20 м. 12 с.
Вид битрейта : Переменный
Битрейт : 6367 Кбит/сек
Максимальный битрейт : 9800 Кбит/сек
Ширина : 720 пикселей
Высота : 480 пикселей
Соотношение сторон : 4:3
Частота кадров : 23,976 (24000/1001) кадра/сек
Цветовое пространство : YUV
Субдискретизация насыщенности : 4:2:0
Битовая глубина : 8 бит
Тип развёртки : Прогрессивная
Порядок развёртки : 2:3 Pulldown
Метод сжатия : С потерями
Бит/(Пиксели*Кадры) : 0.768
Временной код первого кадра : 01:19:46:10
Оригинал временного кода : Group of pictures header
GOP, открыто/закрыто : Открыто
Размер потока : 920 Мбайт (90%)Аудио #1
Идентификатор : 189 (0xBD)-128 (0x80)
Формат : AC-3
Формат/Информация : Audio Coding 3
Режим смешивания : DVD-Video
Продолжительность : 20 м. 12 с.
Вид битрейта : Постоянный
Битрейт : 192 Кбит/сек
Каналы : 2 канала
Расположение каналов : Front: L R
Частота : 48,0 КГц
Частота кадров : 31,250 кадров/сек (1536 SPF)
Битовая глубина : 16 бит
Метод сжатия : С потерями
Задержка видео : -249 мс.
Размер потока : 27,8 Мбайт (3%)
ServiceKind/String : Complete MainАудио #2
Идентификатор : 189 (0xBD)-129 (0x81)
Формат : AC-3
Формат/Информация : Audio Coding 3
Режим смешивания : DVD-Video
Продолжительность : 20 м. 12 с.
Вид битрейта : Постоянный
Битрейт : 384 Кбит/сек
Каналы : 1 канал
Расположение каналов : Front: C
Частота : 48,0 КГц
Частота кадров : 31,250 кадров/сек (1536 SPF)
Битовая глубина : 16 бит
Метод сжатия : С потерями
Задержка видео : -345 мс.
Размер потока : 55,5 Мбайт (5%)
ServiceKind/String : Complete MainТекст #1
Идентификатор : 189 (0xBD)-32 (0x20)
Формат : RLE
Формат/Информация : Run-length encoding
Режим смешивания : DVD-Video
Продолжительность : 20 м. 11 с.
Задержка видео : 817 мс.Текст #2
Идентификатор : 189 (0xBD)-33 (0x21)
Формат : RLE
Формат/Информация : Run-length encoding
Режим смешивания : DVD-Video
Продолжительность : 20 м. 10 с.
Задержка видео : 283 мс.

Скриншоты меню

Скриншоты фильма

Скриншоты доп. материалов

Уважаемые пользователи!Найдите пару минут поблагодарить релизера и высказаться в топике раздачи.Ваше мнение - бальзам для раздающего и пища для ума остальным пользователям.Мои раздачи

Чтобы скачать этот контент, Вам необходимо:
1. Скачать и установить торрент-клиент [клик для Windows], (для мобильного найдите на Play Маркет).
2. Кликнуть по [Скачать]


Внимание.
Если проверка ВЫ НЕ РОБОТ - не работает, значит Вы используете устаревший браузер.
Установите актуальный браузер и повторно кликните по [Скачать]
Безопасность: торрент-клиент разрешён АВ Касперского.

[asmlocator.ru].t639434.torrent 
Торрент: Зарегистрирован [ 2019-05-24 20:30 ] · 208D661FEC2D774016C4A5AC95DAC45EB30829EC

Скачать .torrent

Скачать

38 KB

Статус: проверено
Скачан: 1 раз
Размер: 7,28 GB
terms.php
[Профиль] [ЛС]
Показать сообщения:    
Ответить на тему

Текущее время: 18-Сен 02:06

Часовой пояс: UTC ± 0



Вы не можете начинать темы
Вы не можете отвечать на сообщения
Вы не можете редактировать свои сообщения
Вы не можете удалять свои сообщения
Вы не можете голосовать в опросах
Вы не можете прикреплять файлы к сообщениям
Вы можете скачивать файлы
Верим фактам, а не вранью Путина! Факт, что Правительство ведёт Россию к истреблению.
Так как численность населения падает, даже не смотря на приток эмигрантов!
Русская нация вымирает и вырождается, смешиваясь с эмигрантами!
Факт, что военных и граждан предприятий заставляют голосовать за партию Единая Россия и Путина
ПОД СТРАХОМ УВОЛЬНЕНИЯ!
Нам не нужно Правительство, блокирующее личную жизнь, интернет, нарушающее сохранность данных.
Все эти действия финансируются за счёт народа!