Единственная жизнь / A Single Life (Йоб Роггевен, Йорис Опринс, Марике Блааув / Job Roggeveen, Joris Oprins, Marieke Blaauw) [2014, Нидерланды, мультфильм для взрослых, WEBRip 1080p] original + SUB (rus)

Ответить на тему
Статистика раздачи
Размер:  54 MB   |    Зарегистрирован:  8 месяцев 10 дней   |    Скачан:  11 раз

Полного источника не было: 18 минут

 
   
 
 
Автор Сообщение

star21 ®

Пол: Женский

Стаж: 4 года 2 месяца

Сообщений: 551946

Откуда: Екатеринбург

Создавать темы 19-Май-2019 14:05

[Цитировать]

Победитель и номинанты премии "Оскар" за "Лучший короткометражный анимационный фильм" 2015г.Единственная жизнь
A Single Life
Год выпуска: 2014
Страна: Нидерланды
Жанр: мультфильм для взрослых
Продолжительность: 00:02:19
Перевод: Субтитры - alex.n42
русские субтитры: естьРежиссёр: Йоб Роггевен, Йорис Опринс, Марике Блааув / Job Roggeveen, Joris Oprins, Marieke BlaauwОписание: Девушка обнаруживает под дверью своей квартиры грампластинку с названием "Единственная жизнь". Поставив пластинку на проигрыватель, она вдобавок обнаруживает, что та может управлять временем её жизни. Девушка решает немного поиграть со временем... [imdb]http://www.imdb.com/title/tt3838700[/imdb] релиз: Качество: WEBRip 1080p
Формат: MKV
Видео кодек: AVC
Аудио кодек: AAC
Видео: 1920x1080, 25 fps, ~3009 kbps, 0.058 bit/pixel
Аудио: 48kHz, AAC, 2ch, 256 kbps
субтитры: русские

субтитры

1
00:00:25,000 --> 00:00:27,500
ЕДИНСТВЕННАЯ ЖИЗНЬ2
00:00:39,620 --> 00:00:44,500
...конечно.
Но жизнь единственная тебе дана.3
00:00:44,700 --> 00:00:46,820
И следует прожить её правильно.4
00:00:47,280 --> 00:00:48,940
Вот, что я тебе скажу.5
00:00:50,020 --> 00:00:52,360
Ну давай, попробуй...6
00:01:10,360 --> 00:01:10,850
Только...7
00:01:12,510 --> 00:01:15,210
...не торопись,
Прежде чем уйти навсегда.8
00:01:15,560 --> 00:01:19,130
Не трать жизнь попусту.
Ты же знаешь, что уйдёшь.9
00:01:19,480 --> 00:01:22,400
Помедленнее, не торопись. Прежде...10
00:01:44,850 --> 00:01:46,780
Вновь и вновь ты пытаешься...

MediaInfo

Общее
Уникальный идентификатор : 241599665320190319486789245123848886654 (0xB5C2672AF821816E6E5585581EF0D97E)
Полное имя : D:\A Single Life.2014.WEBRip 1080p.mkv
Формат : Matroska
Версия формата : Version 4 / Version 2
Размер файла : 54,2 Мбайт
Продолжительность : 2 м. 19 с.
Общий поток : 3268 Кбит/сек
Дата кодирования : UTC 2019-05-19 07:02:05
Программа кодирования : mkvmerge v33.1.0 ('Primrose') 64-bit
Библиотека кодирования : libebml v1.3.7 + libmatroska v1.5.0Видео
Идентификатор : 1
Формат : AVC
Формат/Информация : Advanced Video Codec
Профиль формата : High@L4
Настройки формата : CABAC / 4 Ref Frames
Параметр CABAC формата : Да
Параметр RefFrames формата : 4 кадра
Идентификатор кодека : V_MPEG4/ISO/AVC
Продолжительность : 2 м. 19 с.
Битрейт : 3009 Кбит/сек
Ширина : 1920 пикселей
Высота : 1080 пикселей
Соотношение сторон : 16:9
Режим частоты кадров : Постоянный
Частота кадров : 25,000 кадров/сек
Цветовое пространство : YUV
Субдискретизация насыщенности : 4:2:0
Битовая глубина : 8 бит
Тип развёртки : Прогрессивная
Бит/(Пиксели*Кадры) : 0.058
Размер потока : 49,9 Мбайт (92%)
Библиотека кодирования : x264 core 150 r10 df79067
Настройки программы : cabac=1 / ref=4 / deblock=1:0:0 / analyse=0x3:0x113 / me=hex / subme=8 / psy=1 / psy_rd=1.00:0.00 / mixed_ref=1 / me_range=16 / chroma_me=1 / trellis=2 / 8x8dct=1 / cqm=0 / deadzone=21,11 / fast_pskip=1 / chroma_qp_offset=-2 / threads=34 / lookahead_threads=5 / sliced_threads=0 / nr=0 / decimate=1 / interlaced=0 / bluray_compat=0 / stitchable=1 / constrained_intra=0 / bframes=3 / b_pyramid=2 / b_adapt=1 / b_bias=0 / direct=3 / weightb=1 / open_gop=0 / weightp=2 / keyint=infinite / keyint_min=25 / scenecut=40 / intra_refresh=0 / rc_lookahead=50 / rc=crf / mbtree=1 / crf=20.0 / qcomp=0.60 / qpmin=5 / qpmax=69 / qpstep=4 / vbv_maxrate=5500 / vbv_bufsize=15000 / crf_max=0.0 / nal_hrd=none / filler=0 / ip_ratio=1.40 / aq=1:1.00
Default : Да
Forced : Нет
Цветовой диапазон : Limited
Основные цвета : BT.709
Характеристики трансфера : BT.709
Коэффициенты матрицы : BT.709Аудио
Идентификатор : 2
Формат : AAC
Формат/Информация : Advanced Audio Codec
Профиль формата : LC
Идентификатор кодека : A_AAC-2
Продолжительность : 2 м. 19 с.
Битрейт : 256 Кбит/сек
Каналы : 2 канала
Расположение каналов : Front: L R
Частота : 48,0 КГц
Частота кадров : 46,875 кадров/сек (1024 SPF)
Метод сжатия : С потерями
Размер потока : 4,24 Мбайт (8%)
Default : Да
Forced : НетТекст
Идентификатор : 3
Формат : UTF-8
Идентификатор кодека : S_TEXT/UTF8
Идентификатор кодека/Информация : UTF-8 Plain Text
Продолжительность : 1 м. 53 с.
Битрейт : 62 бит/сек
ElementCount : 17
Размер потока : 884 байт (0%)
Default : Да
Forced : Нет

Чтобы скачать этот контент, Вам необходимо:
1. Скачать и установить торрент-клиент [клик для Windows], (для мобильного найдите на Play Маркет).
2. Кликнуть по [Скачать]


Внимание.
Если проверка ВЫ НЕ РОБОТ - не работает, значит Вы используете устаревший браузер.
Установите актуальный браузер и повторно кликните по [Скачать]
Безопасность: торрент-клиент разрешён АВ Касперского.

[asmlocator.ru].t638710.torrent 
Торрент: Зарегистрирован [ 2019-05-19 14:05 ] · 59F438C4785A7F9FF3BA31338F584E3175BE8183

Скачать .torrent

Скачать

17 KB

Статус: проверено
Скачан: 11 раз
Размер: 54 MB
terms.php
[Профиль] [ЛС]
Показать сообщения:    
Ответить на тему

Текущее время: 29-Янв 19:13

Часовой пояс: UTC ± 0



Вы не можете начинать темы
Вы не можете отвечать на сообщения
Вы не можете редактировать свои сообщения
Вы не можете удалять свои сообщения
Вы не можете голосовать в опросах
Вы не можете прикреплять файлы к сообщениям
Вы можете скачивать файлы
Верим фактам, а не вранью Путина! Факт, что Правительство ведёт Россию к истреблению.
Так как численность населения падает, даже не смотря на приток эмигрантов!
Русская нация вымирает и вырождается, смешиваясь с эмигрантами!
Факт, что военных и граждан предприятий заставляют голосовать за партию Единая Россия и Путина
ПОД СТРАХОМ УВОЛЬНЕНИЯ!
Нам не нужно Правительство, блокирующее личную жизнь, интернет, нарушающее сохранность данных.
Все эти действия финансируются за счёт народа!